<?xml version="1.0" standalone="no"?>
<!DOCTYPE svg PUBLIC "-//W3C//DTD SVG 1.1//EN" "http://www.w3.org/Graphics/SVG/1.1/DTD/svg11.dtd" >
<svg xmlns="http://www.w3.org/2000/svg" xmlns:xlink="http://www.w3.org/1999/xlink" version="1.1">
<metadata>
Created by FontForge 20170731 at Fri Mar 12 15:39:34 2021
 By Aleksey,,,
Copyright (c) 1989, 1990, 1991, 1992, 2002 Adobe Systems Incorporated.  All Rights Reserved.
</metadata>
<defs>
<font id="KuenstlerScriptLTStd-Medium" horiz-adv-x="987" >
  <font-face 
    font-family="Kuenstler Script LT Std Medium"
    font-weight="500"
    font-style="italic"
    font-stretch="normal"
    units-per-em="2048"
    panose-1="0 0 6 0 0 0 0 0 0 0"
    ascent="1430"
    descent="-618"
    x-height="606"
    cap-height="1466"
    bbox="-881 -606 3125 1888"
    underline-thickness="102"
    underline-position="-307"
    slope="-40"
    unicode-range="U+0020-FB02"
  />
<missing-glyph horiz-adv-x="1671" 
d="M647 0v1434h1024v-1434h-1024zM1159 809l348 522h-696zM1221 717l348 -522v1044zM811 102h696l-348 523zM750 1239v-1044l348 522z" />
    <glyph glyph-name="f_i" unicode="fi" horiz-adv-x="1138" 
d="M1331 950q0 31 21.5 52.5t52.5 21.5t52.5 -21.5t21.5 -52.5t-21.5 -52t-52.5 -21t-52.5 21t-21.5 52zM684 217l92 102l-4 5q-83 -52 -184 -91.5t-191 -39.5q-66 0 -82 8l-630 -733h-160l684 765q-98 43 -98 82q0 14 9 21.5t19 7.5q25 0 33 -16q23 -47 61 -70
q200 225 330 369.5t267.5 291t225.5 230.5t172.5 154t142.5 98.5t104 28.5q30 0 49.5 -19t19.5 -59q0 -64 -75 -170t-194.5 -217t-286.5 -217.5t-333 -165.5l-319 -361q16 -4 70 -4q84 0 233 59.5t207 126.5l178 203h131l-358 -401q-90 -100 -118 -136t-28 -49q0 -32 54 -32
q58 0 155 70t303 243q38 32 58 49l14 -14q-200 -175 -334.5 -274t-200.5 -99q-98 0 -98 98q0 61 82 156zM1520 1352q0 22 -12 37.5t-38 15.5q-71 0 -236.5 -170t-561.5 -625h4q147 61 283.5 146t235.5 170t174.5 169t113 150.5t37.5 106.5z" />
    <glyph glyph-name="f_l" unicode="fl" horiz-adv-x="1212" 
d="M1520 1352q0 22 -12 37.5t-38 15.5q-71 0 -236.5 -170t-561.5 -625h4q147 61 283.5 146t235.5 170t174.5 169t113 150.5t37.5 106.5zM1323 344v-33q-231 -209 -329 -278.5t-163 -69.5q-114 0 -114 129q0 59 47 142t156 208l-5 4q-274 -253 -518 -253q-66 0 -82 8
l-630 -733h-160l684 765q-98 43 -98 82q0 14 9 21.5t19 7.5q25 0 33 -16q23 -47 61 -70q200 225 330 369.5t267.5 291t225.5 230.5t172.5 154t142.5 98.5t104 28.5q30 0 49.5 -19t19.5 -59q0 -64 -75 -170t-194.5 -217t-286.5 -217.5t-333 -165.5l-319 -361q16 -4 78 -4
q79 0 167 32.5t166 86t144.5 114t116.5 123.5q120 151 312 348t382.5 353t263.5 156q70 0 70 -70q0 -87 -96 -214.5t-233.5 -245t-293 -215t-270.5 -132.5q-123 -140 -201.5 -235.5t-115 -150.5t-48.5 -82t-12 -48t15 -35t34 -14t39.5 5t45 17t45.5 24t52 35t54 40.5
t61.5 50.5t63.5 55t71.5 63t75.5 66zM2011 1364q0 41 -49 41q-24 0 -91 -52.5t-166.5 -149.5t-242 -259.5t-295.5 -357.5h4q170 65 367 208t335 304.5t138 265.5z" />
    <glyph glyph-name=".notdef" horiz-adv-x="1671" 
d="M647 0v1434h1024v-1434h-1024zM1159 809l348 522h-696zM1221 717l348 -522v1044zM811 102h696l-348 523zM750 1239v-1044l348 522z" />
    <glyph glyph-name=".null" horiz-adv-x="0" 
 />
    <glyph glyph-name="nonmarkingreturn" horiz-adv-x="682" 
 />
    <glyph glyph-name="space" unicode=" " horiz-adv-x="454" 
 />
    <glyph glyph-name="exclam" unicode="!" horiz-adv-x="757" 
d="M49 37q0 33 27.5 59.5t58.5 26.5q26 0 44 -16.5t18 -45.5q0 -33 -27.5 -59.5t-58.5 -26.5q-26 0 -44 16.5t-18 45.5zM1028 1118h168q-202 -210 -314 -324.5t-288.5 -287.5t-327.5 -309l-16 16q130 132 279.5 303.5t238 279.5t260.5 322z" />
    <glyph glyph-name="quotedbl" unicode="&#x22;" horiz-adv-x="684" 
d="M874 1223l-22 149q-6 35 -6 51q0 15 12.5 29t42.5 14t42.5 -14t12.5 -29q0 -17 -6 -51l-22 -149q-4 -35 -27 -35q-20 0 -27 35zM678 1223l-23 149q-6 34 -6 51q0 15 13 29t43 14t42.5 -14t12.5 -29q0 -17 -6 -51l-23 -149q-3 -35 -26 -35q-20 0 -27 35z" />
    <glyph glyph-name="numbersign" unicode="#" horiz-adv-x="1060" 
d="M756 416l211 319h-310l-211 -319h310zM92 -25l260 392h-178l33 49h178l211 319h-178l33 49h178l241 367h62l-242 -367h309l242 367h62l-244 -367h178l-33 -49h-178l-211 -319h176l-33 -49h-176l-258 -392h-61l260 392h-309l-260 -392h-62z" />
    <glyph glyph-name="dollar" unicode="$" horiz-adv-x="1515" 
d="M168 -96l217 252q-90 108 -90 254q0 84 27.5 134t83.5 50q37 0 61.5 -24.5t24.5 -61.5q0 -35 -22.5 -60.5t-55.5 -25.5q-65 0 -86 65l-9 -6v-45q0 -150 84 -258l582 678q-80 104 -80 221q0 84 35.5 157.5t93.5 124.5t133 88.5t154.5 55t157.5 17.5q33 0 67 -9l174 203
l15 -14l-162 -191q87 -18 158 -73l188 219l14 -15l-186 -217q65 -54 101 -128t36 -144q0 -64 -26 -99.5t-78 -35.5q-35 0 -63.5 22.5t-28.5 59.5q0 36 25 63t67 27q56 0 75 -53h5q0 74 -32.5 146t-94.5 126l-527 -614q41 -42 64.5 -71t52.5 -75.5t43 -100t14 -116.5
q0 -82 -34.5 -155.5t-92.5 -127t-132 -93t-155 -59.5t-159 -20q-136 0 -254 56l-172 -201l-14 14l168 195q-84 45 -136 102l-217 -252zM1192 807l524 612q-74 57 -162 70l-473 -551q31 -47 111 -131zM1071 956l459 535q-14 4 -49 4q-116 0 -220 -50.5t-168.5 -140
t-64.5 -194.5q0 -87 43 -154zM1124 696l-553 -645q108 -51 242 -51q106 0 209 54.5t169 145.5t66 189q0 93 -35 165t-98 142zM553 61l557 650q-18 22 -56.5 64.5t-56.5 64.5l-579 -676q46 -60 135 -103z" />
    <glyph glyph-name="percent" unicode="%" horiz-adv-x="1744" 
d="M1159 1167h25q0 -64 -36 -107.5t-95 -55.5q-19 -52 -65.5 -126t-116.5 -155.5t-149 -151.5t-171 -115.5t-174 -45.5q-40 0 -65 26t-25 68q0 90 76.5 215t183 231.5t225 182t195.5 75.5q64 0 110 -37l-16 -16q-23 29 -86 29q-48 0 -160.5 -90.5t-223 -206.5t-195.5 -230
t-85 -157q0 -41 18 -53.5t52 -12.5q73 0 172.5 59t191 146.5t170.5 185.5t121 179q-41 0 -65.5 17.5t-24.5 45.5q0 26 18.5 42.5t43.5 16.5q29 0 45 -16.5t16 -40.5q0 -22 -8 -41q44 9 71 50t27 89zM1602 1217h57q-162 -165 -596 -592t-653 -658h-58q149 151 399 393
t463 454t388 403zM1843 733h25q0 -64 -36 -108t-95 -56q-19 -52 -65.5 -126t-116.5 -155.5t-149 -151.5t-171 -115.5t-174 -45.5q-40 0 -65 26t-25 69q0 90 76.5 215t183 231.5t225 182t195.5 75.5q64 0 110 -37l-16 -16q-23 29 -86 29q-48 0 -160.5 -90.5t-223 -206.5
t-195.5 -230t-85 -157q0 -41 18 -53.5t52 -12.5q73 0 172.5 59t191 146t170.5 185t121 179q-41 0 -65.5 18t-24.5 46q0 26 18.5 42.5t43.5 16.5q29 0 45 -16.5t16 -40.5q0 -22 -8 -41q44 9 71 50t27 89z" />
    <glyph glyph-name="ampersand" unicode="&#x26;" horiz-adv-x="1441" 
d="M545 -37l-13 -20q-46 33 -111.5 55t-131.5 22q-40 0 -79.5 -10.5t-75.5 -32t-58.5 -61.5t-22.5 -92q0 -74 41.5 -124.5t101.5 -71.5t132 -21q129 0 253 58t216 152t154 215.5t77 246.5h-4q-192 -218 -410 -218q-163 0 -263.5 85t-100.5 243q0 52 15 101.5t39 90.5
t62 81.5t75.5 71.5t89.5 63.5t94 55.5t98.5 49t93.5 41.5t88 35.5q-8 45 -8 143q0 132 83 238t167 106q59 0 91 -40t32 -99q0 -54 -22.5 -103.5t-54.5 -85t-82 -70.5t-88 -56t-89 -45q10 -64 61.5 -271.5t57.5 -326.5h4q22 35 103.5 162t109.5 171q37 61 55.5 88t44.5 55.5
t51 38t58 9.5q40 0 63 -20.5t23 -57.5q0 -34 -20.5 -56t-53.5 -22q-34 0 -54 17t-20 45q0 20 12.5 34t12.5 15q0 8 -25 8q-27 0 -75 -71.5t-134.5 -219.5t-154.5 -246q-3 -153 -59.5 -289.5t-152 -234.5t-229 -155.5t-284.5 -57.5q-135 0 -217 63t-82 187q0 93 72.5 153
t181.5 60q146 0 262 -82zM373 377q0 -128 63.5 -209.5t186.5 -81.5q206 0 405 242q-2 93 -29 227.5t-57 250.5t-33 148q-73 -34 -141 -73t-142.5 -95.5t-128.5 -116.5t-89 -136.5t-35 -155.5zM1245 1331q0 47 -26 79t-68 32q-31 0 -69 -23.5t-74.5 -64.5t-61 -108
t-24.5 -144q0 -66 8 -115q55 24 105.5 55t100 74t79.5 99t30 116z" />
    <glyph glyph-name="quotesingle" unicode="'" horiz-adv-x="454" 
d="M731 1223l-22 149q-7 40 -7 51q0 15 13 29t43 14t42.5 -14t12.5 -29q0 -17 -6 -51l-23 -149q-4 -35 -26 -35q-20 0 -27 35z" />
    <glyph glyph-name="parenleft" unicode="(" horiz-adv-x="835" 
d="M1393 1466l16 -12q-468 -327 -828.5 -772t-547.5 -948l-17 12q195 594 518 1000t859 720z" />
    <glyph glyph-name="parenright" unicode=")" horiz-adv-x="835" 
d="M-262 -266l-17 12q468 327 829 772t548 948l16 -12q-195 -595 -517.5 -1000.5t-858.5 -719.5z" />
    <glyph glyph-name="asterisk" unicode="*" horiz-adv-x="757" 
d="M659 926l193 248l-291 -5v31l291 -8l-135 254l24 20l127 -266l176 266l25 -20l-188 -254l286 8v-31l-295 5l136 -248l-25 -21l-119 262l-180 -262z" />
    <glyph glyph-name="plus" unicode="+" horiz-adv-x="1363" 
d="M780 543v493h49v-493h494v-49h-494v-494h-49v494h-493v49h493z" />
    <glyph glyph-name="comma" unicode="," horiz-adv-x="454" 
d="M-80 -156l-16 17q105 59 151 119l-4 4q-9 -9 -33 -9q-21 0 -37 18t-16 40q0 37 27.5 63.5t54.5 26.5q29 0 47.5 -17t18.5 -49t-21 -66t-55 -63t-61.5 -48.5t-55.5 -35.5z" />
    <glyph glyph-name="hyphen" unicode="-" 
d="M279 356l24 66q53 -8 258 -8q127 0 283 8l-25 -66q-119 9 -258 9q-107 0 -282 -9z" />
    <glyph glyph-name="period" unicode="." horiz-adv-x="454" 
d="M-35 37q0 33 27.5 59.5t58.5 26.5q26 0 44 -16.5t18 -45.5q0 -33 -27.5 -59.5t-58.5 -26.5q-26 0 -44 16.5t-18 45.5z" />
    <glyph glyph-name="slash" unicode="/" horiz-adv-x="835" 
d="M-4 -37h-78q1216 1216 1479 1503h78q-779 -730 -1479 -1503z" />
    <glyph glyph-name="zero" unicode="0" horiz-adv-x="1064" 
d="M90 123q0 84 57.5 196.5t149 225t209 223t234 194.5t227.5 136.5t186 52.5q60 0 96 -33l-16 -16q-30 24 -82 24q-70 0 -240.5 -136.5t-340 -312.5t-300.5 -351t-131 -244q0 -41 31.5 -61.5t83.5 -20.5q85 0 187 48t198.5 126.5t192.5 176t176 199t141 192t96 159.5l-4 4
q-12 -8 -49 -8q-27 0 -46.5 23t-19.5 57q0 30 22 55t52 25q33 0 53.5 -19.5t20.5 -50.5q0 -33 -4 -49h8q106 70 127 178h25q-8 -77 -49.5 -125t-110.5 -86q-19 -55 -73.5 -144t-133 -193.5t-179.5 -209t-205.5 -190.5t-219 -139.5t-211.5 -53.5q-68 0 -113 38.5t-45 109.5z
" />
    <glyph glyph-name="one" unicode="1" horiz-adv-x="835" 
d="M49 0l926 975l-4 4q-405 -255 -676 -373l-16 25q150 66 314 152.5t320.5 190.5t208.5 177h131l-1020 -1151h-184z" />
    <glyph glyph-name="two" unicode="2" 
d="M934 967l20 -17q-115 -270 -266 -270q-58 0 -90.5 36t-32.5 95q0 86 64.5 166.5t157 127t176.5 46.5q96 0 162.5 -57t66.5 -152q0 -154 -156 -305.5t-393 -222.5q-177 -53 -293 -94.5t-190.5 -82t-112.5 -69t-92 -78.5h8q95 53 172 53q45 0 166 -41q125 -41 195 -41
q110 0 209 107l16 -16l-14 -14q-39 -40 -62 -60.5t-62.5 -49t-80.5 -41t-88 -12.5q-13 0 -28.5 2t-28 5t-33.5 9t-32 9t-36.5 11.5l-34.5 11.5q-132 47 -205 47q-78 0 -176 -82l-12 12q71 67 99.5 92.5t84 70.5t95 67.5t109.5 59.5t151 70t198 78q101 39 192.5 99.5
t155.5 126t111.5 133t70.5 124t23 95.5q0 50 -42.5 80t-112.5 30q-59 0 -128.5 -36.5t-122 -86.5t-87.5 -103t-35 -85q0 -51 25.5 -80.5t76.5 -29.5q49 0 102 46t88.5 104.5t51.5 111.5z" />
    <glyph glyph-name="three" unicode="3" 
d="M958 930l17 -17q-26 -71 -101 -139.5t-137 -68.5q-49 0 -79.5 30.5t-30.5 79.5q0 85 57 164t143.5 125.5t171.5 46.5q90 0 141.5 -48t51.5 -118q0 -106 -68.5 -196t-184.5 -141.5t-251 -51.5v-6q61 -21 88 -58.5t27 -95.5q0 -49 -23.5 -109t-71.5 -122.5t-112.5 -113.5
t-156.5 -83.5t-193 -32.5q-255 0 -271 209q0 37 12 78.5t42.5 76t72.5 34.5q41 0 68 -22t27 -60q0 -41 -24.5 -65.5t-68.5 -24.5q-64 0 -79 80q-25 -34 -25 -97q0 -90 56.5 -137t144.5 -47q39 0 71 7.5t76.5 30.5t98 72.5t116.5 125.5q106 125 136 177.5t30 92.5
q0 48 -41.5 66t-122.5 18v12q119 0 191.5 13.5t114.5 38.5t92 75q75 75 127.5 159t52.5 140q0 38 -36.5 68t-105.5 30q-66 0 -149.5 -52.5t-142 -127.5t-58.5 -135q0 -34 26 -58t58 -24q64 0 134.5 71.5t88.5 129.5z" />
    <glyph glyph-name="four" unicode="4" 
d="M225 0l326 344h-535l13 45l1290 762h119l-715 -782h170l-25 -25h-168l-315 -344h-160zM575 369l682 716l-4 5l-1200 -717v-4h522z" />
    <glyph glyph-name="five" unicode="5" 
d="M463 631l-21 16l492 504l20 -12l-77 -78h4q37 33 90.5 61.5t105.5 28.5q29 0 116 -24.5t110 -24.5q50 0 106 45l12 -12q-35 -31 -50 -43t-48 -34.5t-62.5 -32t-60.5 -9.5q-52 0 -123 24.5t-102 24.5q-90 0 -184 -94l-279 -283l4 -4q91 61 201 61q97 0 149 -58.5
t52 -158.5q0 -60 -35 -134.5t-99.5 -147.5t-146 -134t-184.5 -99t-205 -38q-115 0 -177.5 59.5t-62.5 162.5q0 77 43 130.5t101 53.5q27 0 51 -24.5t24 -61.5q0 -38 -21.5 -62t-60.5 -24q-34 0 -55.5 27t-21.5 63q-16 -14 -25.5 -49t-9.5 -68q0 -76 56 -129t153 -53
q66 0 127.5 32t138.5 103q142 129 239 257.5t97 201.5q0 59 -37.5 93t-101.5 34q-102 0 -242 -90z" />
    <glyph glyph-name="six" unicode="6" 
d="M877 516q0 -129 -82.5 -256t-209 -206t-249.5 -79q-114 0 -165.5 54t-51.5 147q0 87 68.5 215t182 257.5t246 244t275.5 186.5t254 72q84 0 135 -48t51 -134q0 -73 -49 -125.5t-111 -52.5q-40 0 -65 22.5t-25 60.5q0 37 24 63t62 26q32 0 53 -18t21 -48q0 -23 -2 -35
q28 5 48 35t20 72q0 70 -44.5 113.5t-109.5 43.5q-83 0 -158 -46t-204 -179l-218 -221h9q55 20 110 20q83 0 134 -54t51 -130zM168 115q0 -58 37.5 -86.5t97.5 -28.5q51 0 123 47.5t140 119.5t128 150.5t96.5 146.5t36.5 101q0 61 -43.5 86t-107.5 25q-85 0 -208 -106.5
t-211.5 -241t-88.5 -213.5z" />
    <glyph glyph-name="seven" unicode="7" horiz-adv-x="835" 
d="M315 0h-192q555 581 1077 1057h-4q-93 -58 -225 -58q-32 0 -160 27q-110 27 -152 27q-37 0 -96 -37t-96 -78l-16 16q17 15 52 48t59.5 54.5t58.5 45.5t69.5 36.5t71.5 12.5q55 0 166 -39q6 -2 25 -8t26.5 -8t24 -6.5t26.5 -7t24.5 -5t27 -3.5t24.5 -1q64 0 105 20t83 58
l13 -4q-590 -632 -992 -1147z" />
    <glyph glyph-name="eight" unicode="8" 
d="M1073 1126v-16q-55 16 -123 16q-93 0 -143.5 -66t-50.5 -159q0 -126 35 -248q54 11 93.5 22t92 33.5t88 49.5t65.5 71t41 99q-33 -10 -61 -10q-37 0 -61.5 20t-24.5 57q0 32 23.5 57t58.5 25q40 0 65 -30.5t25 -73.5q74 38 74 137h12q0 -119 -86 -174q-27 -240 -401 -307
q28 -128 28 -191q0 -126 -59 -232t-165 -168.5t-234 -62.5q-110 0 -178 58t-68 160q0 74 35 142.5t92 119t129.5 90t147.5 62t145 28.5q-23 122 -23 168q0 136 86.5 242t218.5 106q63 0 123 -25zM168 176q0 -90 58.5 -133t154.5 -43q143 0 231 100.5t88 243.5q0 108 -28 266
q-130 -14 -243 -68.5t-187 -151t-74 -214.5z" />
    <glyph glyph-name="nine" unicode="9" 
d="M451 610q0 129 82.5 256t208.5 206t249 79q114 0 165.5 -54t51.5 -147q0 -87 -68.5 -215t-182 -257.5t-246 -244t-275.5 -186.5t-254 -72q-84 0 -135 48.5t-51 134.5q0 73 49 125.5t111 52.5q40 0 65 -23t25 -61q0 -37 -23.5 -62.5t-62.5 -25.5q-32 0 -53 17.5t-21 47.5
q0 23 2 35q-28 -5 -48 -34.5t-20 -71.5q0 -70 44.5 -114t109.5 -44q83 0 159 46t204 179l217 221h-9q-55 -20 -110 -20q-83 0 -133.5 53.5t-50.5 130.5zM1159 1012q0 58 -37.5 86t-97.5 28q-51 0 -123 -47.5t-140 -119.5t-128 -150.5t-96.5 -146.5t-36.5 -101
q0 -110 151 -110q85 0 208 106.5t211.5 241t88.5 213.5z" />
    <glyph glyph-name="colon" unicode=":" horiz-adv-x="454" 
d="M375 528q0 33 27.5 59.5t58.5 26.5q26 0 43.5 -16t17.5 -45q0 -33 -27.5 -59.5t-58.5 -26.5q-26 0 -43.5 16t-17.5 45zM-35 37q0 33 27.5 59.5t58.5 26.5q26 0 44 -16.5t18 -45.5q0 -33 -27.5 -59.5t-58.5 -26.5q-26 0 -44 16.5t-18 45.5z" />
    <glyph glyph-name="semicolon" unicode=";" horiz-adv-x="532" 
d="M-35 33q0 37 27.5 63.5t54.5 26.5q29 0 47.5 -17t18.5 -49t-21 -66t-55 -63t-61.5 -48.5t-55.5 -35.5l-16 17q105 59 151 114v9q-11 -7 -18 -7q-6 -2 -19 -2q-21 0 -37 18t-16 40zM375 528q0 33 27.5 59.5t58.5 26.5q26 0 43.5 -16t17.5 -45q0 -33 -27.5 -59.5
t-58.5 -26.5q-26 0 -43.5 16t-17.5 45z" />
    <glyph glyph-name="less" unicode="&#x3c;" horiz-adv-x="1363" 
d="M1262 0l-1037 494v49l1037 493v-43l-1000 -475l1000 -475v-43z" />
    <glyph glyph-name="equal" unicode="=" horiz-adv-x="1363" 
d="M287 692v49h1036v-49h-1036zM287 295v49h1036v-49h-1036z" />
    <glyph glyph-name="greater" unicode="&#x3e;" horiz-adv-x="1363" 
d="M451 1036l1036 -493v-49l-1036 -494v43l999 475l-999 475v43z" />
    <glyph glyph-name="question" unicode="?" 
d="M307 213l-16 16q28 46 68 85t93 72.5t101.5 58t118.5 55.5q95 42 178 111.5t135.5 141t82.5 138.5t30 113q0 122 -164 122q-56 0 -124 -38.5t-121.5 -92t-90.5 -113t-37 -100.5q0 -49 26 -77.5t72 -28.5q87 0 163.5 88.5t82.5 189.5l25 -16q-9 -116 -97 -201.5
t-182 -85.5q-52 0 -83 37t-31 94q0 63 26.5 121.5t70 102.5t96.5 77.5t108.5 50.5t103.5 17q116 0 172.5 -59.5t56.5 -165.5q0 -64 -30 -132.5t-87.5 -135.5t-154.5 -123t-219 -86q-128 -33 -228.5 -98t-144.5 -138zM102 37q0 33 27.5 59.5t58.5 26.5q26 0 44 -16.5
t18 -45.5q0 -33 -27.5 -59.5t-58.5 -26.5q-26 0 -44 16.5t-18 45.5z" />
    <glyph glyph-name="at" unicode="@" horiz-adv-x="1843" 
d="M1006 573q0 -96 37 -140t90 -44q44 0 92.5 30t93.5 86t74.5 151.5t29.5 211.5q0 75 -31 113.5t-79 38.5q-40 0 -91.5 -31.5t-100 -86.5t-82 -142.5t-33.5 -186.5zM1485 1069h131l-143 -569q-9 -36 -9 -54q0 -37 28.5 -63.5t72.5 -26.5q78 0 150.5 77t113.5 184t41 202
q0 109 -45.5 214.5t-128 191.5t-213 139t-285.5 53q-139 0 -258 -51t-205.5 -144t-135 -230.5t-48.5 -303.5q0 -102 29 -200.5t86.5 -184.5t136.5 -151t186.5 -102.5t229.5 -37.5q214 0 430 115l28 -45q-240 -119 -473 -119q-131 0 -246.5 32.5t-199.5 88.5t-151 128
t-108 153t-62 160.5t-21 154.5q0 171 63 319t169.5 249.5t249.5 159.5t300 58q153 0 287 -49.5t229 -135t150 -204.5t55 -254q0 -85 -27 -174.5t-74.5 -166t-123 -126t-162.5 -49.5q-54 0 -96 19t-64.5 46.5t-33.5 49.5t-13 37h-4q-29 -48 -97.5 -100t-148.5 -52
q-83 0 -150 70.5t-67 183.5q0 62 23 135.5t65 143t94.5 127t117.5 92.5t128 35q125 0 172 -123h4z" />
    <glyph glyph-name="A" unicode="A" horiz-adv-x="2125" 
d="M836 659l12 25h299q127 141 214.5 235.5t182 191.5t161.5 156t134 108t120.5 70t100.5 21q60 0 85.5 -25.5t25.5 -76.5q0 -64 -66 -167.5t-144 -190.5t-171 -188t-119 -134h205l-12 -25h-213l-45 -50q-44 -50 -64 -74.5t-66 -79t-71.5 -91.5t-56 -83t-44.5 -81.5
t-14 -60.5q0 -151 176 -151q98 0 213.5 63t205.5 151.5t151 185t61 161.5q0 46 -24.5 62t-69.5 16q-86 0 -199.5 -101.5t-161.5 -197.5h-20q28 64 89 137.5t144 129.5t152 56q115 0 115 -102q0 -87 -44 -176.5t-116 -161t-158.5 -128.5t-175.5 -88.5t-162 -31.5
q-225 0 -225 254q0 69 54 160.5t216 281.5h-348q-73 -87 -125.5 -147.5t-126 -139t-132 -132t-131 -110t-135.5 -90.5t-133.5 -55.5t-137.5 -21.5q-100 0 -165 42t-65 126q0 42 24.5 72t65.5 30q37 0 59.5 -24t22.5 -66q0 -33 -20 -57.5t-45 -24.5q-37 0 -37 -20
q0 -9 22 -21t64.5 -22t89.5 -10q68 0 141.5 26.5t149.5 78.5t145 110t149.5 142.5t140.5 152.5t138 161h-286zM1184 684h344q105 129 266 300.5t244.5 268t83.5 136.5q0 53 -74 53q-107 0 -306 -180.5t-558 -577.5z" />
    <glyph glyph-name="B" unicode="B" horiz-adv-x="1818" 
d="M1343 537v-25q-128 -43 -223.5 -158.5t-95.5 -232.5q0 -59 37.5 -96t105.5 -37q75 0 169 66.5t170.5 161t129 203t52.5 187.5q0 88 -31 127q-81 -24 -135 -24q-52 0 -76.5 16.5t-24.5 42.5q0 29 24 46t62 17q88 0 168 -73q128 33 213.5 149.5t85.5 243.5q0 60 -36 121
t-87 96q-83 -41 -169 -116t-161.5 -165.5t-154.5 -197t-156.5 -213.5t-159 -211.5t-171 -194.5t-183 -159t-204 -108.5t-226.5 -39.5q-44 0 -83.5 6.5t-80.5 22.5t-65.5 49.5t-24.5 81.5q0 39 24.5 64.5t72.5 25.5q39 0 63.5 -22t24.5 -60q0 -35 -24 -56.5t-60 -21.5
q-27 0 -27 -16q0 -4 3 -9t13.5 -12.5t28 -13.5t50.5 -10t77 -4q98 0 193 41.5t177.5 113t163.5 164.5t159 199.5t156 215.5t161.5 214.5t167.5 193.5t183 155.5t200 98.5q-96 58 -279 58q-217 0 -415.5 -84t-319.5 -222t-121 -288q0 -67 35 -107.5t100 -40.5q85 0 184.5 100
t164.5 231.5t65 225.5h24q0 -94 -30.5 -194.5t-85.5 -187.5t-142 -143t-188 -56q-152 0 -152 168q0 119 73.5 233.5t193 199.5t279 137t323.5 52q137 0 217.5 -16t146.5 -45q34 15 81.5 26t78.5 11v-25q-82 -7 -135 -33q72 -34 114 -101.5t42 -152.5q0 -98 -59 -185
t-145.5 -139t-176.5 -65q39 -30 66.5 -83.5t27.5 -112.5q0 -141 -92 -277.5t-234.5 -220.5t-283.5 -84q-90 0 -133.5 43.5t-43.5 114.5q0 131 104.5 251t239.5 165zM1446 768q0 -35 72 -35q65 0 129 17q-23 23 -63.5 40t-76.5 17q-29 0 -45 -11.5t-16 -27.5z" />
    <glyph glyph-name="C" unicode="C" horiz-adv-x="1290" 
d="M1909 1339q0 103 -172 103q-95 0 -210 -48.5t-215.5 -118t-212 -166.5t-186.5 -172.5t-151 -158.5q165 8 337 49t314 101.5t255.5 131t177 144t63.5 135.5zM303 205q0 72 25.5 151.5t69 153t90 135.5t98.5 117q-63 6 -117 23.5t-102.5 48.5t-76.5 84t-28 122
q0 100 45.5 179.5t121 126.5t166 71.5t187.5 24.5q209 0 340 -78l-12 -25q-149 78 -332 78q-120 0 -220 -45t-161 -133t-61 -203q0 -101 80 -172.5t198 -77.5q81 110 207.5 226.5t277 219t321.5 168.5t317 66q35 0 66 -5.5t62 -18t49.5 -39t18.5 -64.5q0 -91 -116.5 -196
t-289.5 -189.5t-385.5 -141.5t-391.5 -58q-76 -79 -162 -186.5t-161 -236t-75 -200.5q0 -73 56.5 -108t136.5 -35q85 0 201 48.5t216.5 119t171 157.5t70.5 158q0 52 -33 83.5t-86 31.5q-103 0 -230.5 -94t-211.5 -218l-12 17q22 40 71.5 93t113 104.5t139 86.5t139.5 35
q65 0 100 -42.5t35 -112.5q0 -96 -66 -188.5t-166.5 -158t-221.5 -105.5t-230 -40q-117 0 -179.5 62.5t-62.5 179.5z" />
    <glyph glyph-name="D" unicode="D" horiz-adv-x="1593" 
d="M1769 938q0 138 -57 258q-92 -82 -177 -179.5t-149 -184t-130 -178t-133.5 -174.5t-144 -159.5t-177 -145.5t-219.5 -122q135 -53 233 -53q121 0 243.5 42t226 112t194.5 164.5t154 198t99.5 213t36.5 208.5zM590 795l-25 8q44 60 78 102t88.5 97.5t112.5 85.5t114 30
q62 0 103 -39t41 -112q0 -60 -52 -138t-133 -147.5t-192.5 -117.5t-218.5 -48q-121 0 -190.5 65.5t-69.5 176.5q0 92 48.5 192.5t137.5 191.5t202.5 164t254.5 116.5t282 43.5q104 0 203 -21t194 -74.5t148 -133.5q173 125 348 143v-24q-165 -16 -331 -148q61 -100 61 -270
q0 -111 -38.5 -228.5t-105.5 -225t-163 -203t-206.5 -166t-241 -111.5t-261.5 -41q-122 0 -282 45q-62 -19 -150 -32t-156 -13q-91 0 -130.5 19t-39.5 59q0 41 44.5 65.5t130.5 24.5q82 0 182 -21t172 -49q80 39 154 102.5t137.5 140.5t128 164.5t139 185t156.5 192t194 195
t238 184.5q-62 96 -205.5 156.5t-314.5 60.5q-119 0 -235 -34.5t-208 -91t-171 -129.5t-131.5 -150.5t-82 -153t-29.5 -138.5q0 -114 51.5 -159t153.5 -45q84 0 184 44t180.5 108t134.5 141t54 139q0 55 -35.5 88t-85.5 33q-40 0 -85.5 -22.5t-80 -50t-78 -76t-65.5 -76
t-57 -74.5zM152 94q-50 0 -78.5 -16.5t-28.5 -40.5t25.5 -36.5t95.5 -12.5q145 0 287 39v4q-221 63 -301 63z" />
    <glyph glyph-name="E" unicode="E" horiz-adv-x="1290" 
d="M983 1397l-12 -17q-100 50 -242 50q-52 0 -105 -14t-101 -41t-78.5 -74t-30.5 -105q0 -60 21 -105.5t53 -72t80.5 -43.5t91.5 -23.5t98 -9.5q12 86 69 168.5t139.5 145.5t179.5 111t193.5 73.5t176.5 25.5q167 0 167 -118q0 -69 -71 -137t-179 -119t-230 -91.5
t-228.5 -61.5t-171.5 -21q-8 -20 -8 -58q32 8 90 8q54 0 102.5 -24.5t48.5 -61.5q0 -32 -24 -48.5t-58 -16.5q-48 0 -98 29t-74 77q-84 -44 -180 -123.5t-176.5 -169t-134 -185.5t-53.5 -165q0 -88 66 -140t208 -52q89 0 189.5 30.5t187.5 81t159 109t114 120t42 109.5
q0 52 -28 85t-65 44t-83 11q-197 0 -405 -263l-25 9q70 104 187 191t231 87q213 0 213 -164q0 -83 -55 -167.5t-148.5 -153t-231.5 -111.5t-290 -43q-161 0 -244.5 74t-83.5 221q0 104 53.5 206.5t138.5 181t190 134.5t208 76q-8 40 -8 66q-76 2 -141.5 16t-124.5 44.5
t-93 87t-34 134.5q0 60 34 109.5t88.5 79t117 45.5t124.5 16q146 0 254 -57zM1012 782q0 28 -44 45t-83 17q-41 0 -82 -13q25 -40 68.5 -65t86.5 -25q54 0 54 41zM1532 1442q-69 0 -178 -54t-213.5 -131.5t-195.5 -164t-130 -150.5q87 2 227.5 36.5t278.5 88t238 129
t100 147.5q0 59 -33 79t-94 20z" />
    <glyph glyph-name="F" unicode="F" horiz-adv-x="1290" 
d="M1155 414l-74 -33q85 162 119 209l-135 -12q-173 -281 -401.5 -448t-462.5 -167q-121 0 -187.5 42.5t-66.5 129.5q0 41 24.5 69.5t65.5 28.5q37 0 59.5 -25.5t22.5 -66.5q0 -36 -19 -58t-49 -22q-31 0 -31 -16q0 -57 162 -57q180 0 338 126t385 451q-90 -3 -181.5 -58
t-145.5 -134l-13 20q146 180 361 197q156 204 224 281q219 247 433 313q89 28 182 28v-24q-67 0 -134 -27.5t-119 -66.5t-115 -105.5t-105 -120t-106.5 -136.5t-104.5 -130l131 12q34 60 105.5 122.5t132.5 62.5q32 0 51 -16.5t19 -49.5q0 -36 -49.5 -67.5t-112 -48
t-125.5 -23.5q-52 -88 -78 -180zM901 1167h12q33 -61 33 -143q0 -80 -25.5 -157t-71.5 -140t-118 -102t-158 -39t-141 55t-55 141q0 93 49.5 193t133.5 186t187 155.5t218.5 109.5t218.5 40q161 0 387 -55q229 -55 350 -55q174 0 254 102l16 -8q-69 -90 -149.5 -141.5
t-198.5 -51.5q-53 0 -117 9t-106.5 18.5t-122.5 28.5q-229 55 -395 55q-112 0 -221.5 -38.5t-194 -101.5t-150 -139.5t-100.5 -156t-35 -146.5q0 -69 43 -122.5t121 -53.5q53 0 107.5 29t98 76.5t78.5 104t54 114.5t19 106q0 30 -21 127zM1495 737q0 37 -45 37
q-48 0 -112 -52.5t-97 -103.5q87 11 170.5 44.5t83.5 74.5z" />
    <glyph glyph-name="G" unicode="G" horiz-adv-x="1363" 
d="M1516 688v-12q-37 -11 -76 -43t-76 -75.5t-78 -97.5t-88 -110.5t-100 -112.5t-119.5 -105t-141.5 -87t-171 -60t-203 -22q-117 0 -189.5 59.5t-72.5 157.5q0 50 30.5 90.5t79.5 40.5q45 0 74 -25.5t29 -72.5q0 -42 -25.5 -70t-69.5 -28q-30 0 -49.5 8t-21.5 8
q-10 0 -10 -12q0 -40 67 -85.5t162 -45.5q73 0 149.5 28.5t128.5 59.5t127.5 101.5t105 102.5t102.5 115q10 10 15 16t13 15t14 16l-4 4q-103 -49 -213 -49q-103 0 -160 62t-57 168q0 71 41 147q-80 13 -148.5 40t-127 70.5t-92 110t-33.5 148.5q0 77 40 140t105 102t143 60
t158 21q195 0 377 -69l-8 -21q-189 66 -373 66q-57 0 -111.5 -12.5t-106 -39.5t-90 -67t-62 -99t-23.5 -130q0 -61 35.5 -115t91.5 -90t116 -59t117 -31q73 154 247 309t390.5 256.5t394.5 101.5q91 0 154.5 -38.5t63.5 -120.5q0 -84 -74.5 -169.5t-191.5 -152t-254 -119
t-268.5 -80.5t-227.5 -28q-74 0 -123 4q-86 -117 -86 -197q0 -72 38.5 -107.5t96.5 -35.5q117 0 246 61q65 101 154.5 153t218.5 52zM1962 1311q0 38 -19.5 65t-51.5 40.5t-65 19.5t-69 6q-98 0 -231.5 -71.5t-261.5 -180t-231.5 -212t-176.5 -192.5q49 -4 143 -4
q98 0 227 31.5t256 86t236 120.5t176.5 143.5t67.5 147.5z" />
    <glyph glyph-name="H" unicode="H" horiz-adv-x="2125" 
d="M1204 377h-61q66 116 164 250l-156 -21q-63 -99 -132.5 -187t-159 -173.5t-183.5 -146.5t-205.5 -98.5t-224.5 -37.5q-104 0 -169 44t-65 112q0 45 26.5 75.5t63.5 30.5q42 0 66.5 -20.5t24.5 -61.5q0 -37 -22 -57t-52 -20q-33 0 -33 -21q0 -25 51.5 -41t104.5 -16
q63 0 126 18t113.5 44t106.5 71.5t95 83.5t89.5 98.5t79 98t74.5 100t65 88.5q-282 -62 -467 -234l-12 13q59 74 215.5 152t280.5 93q78 112 187 241t249.5 263.5t255.5 206.5l-4 4q-86 -53 -151 -78.5t-136 -25.5q-54 0 -106 26.5t-90 57.5t-99.5 57.5t-130.5 26.5
q-101 0 -202 -55t-166.5 -147.5t-65.5 -191.5q0 -86 56 -133t128 -47q83 0 182 54.5t174 137t95 160.5l16 -4q-17 -71 -58.5 -137.5t-99.5 -119t-133.5 -84t-154.5 -31.5q-104 0 -167 56.5t-63 160.5q0 79 56.5 163.5t138.5 147t176.5 103t169.5 40.5q51 0 101 -18.5t91 -45
t81.5 -53t86.5 -45t91 -18.5q39 0 80 12t82.5 36.5t70.5 44t70 51.5l12 -21q-97 -68 -184.5 -152t-166.5 -183.5t-138.5 -183t-138.5 -201.5q-26 -40 -40 -60l160 22q56 82 126.5 165.5t106.5 113.5l9 -8q-99 -86 -201 -267l152 25q43 57 115.5 141.5t177 195.5t204 203.5
t197.5 157t157 64.5q31 0 50.5 -16.5t19.5 -41.5q0 -92 -86.5 -213t-208 -223.5t-256.5 -180t-229 -91.5q-5 -7 -46 -60.5t-61 -81.5t-60 -84.5t-63 -96.5t-49.5 -89t-38.5 -89.5t-12 -72.5q0 -55 42 -84.5t97 -29.5q109 0 224 60t197.5 143t136 170t53.5 143q0 52 -24.5 81
t-65.5 29q-48 0 -102.5 -25.5t-103.5 -66t-87 -80t-68 -77.5h-24q37 48 77 90.5t91.5 87t108 70.5t108.5 26q56 0 85 -38.5t29 -100.5q0 -88 -64 -187t-156 -174.5t-198.5 -125.5t-187.5 -50q-217 0 -217 213q0 56 20.5 120.5t62.5 137.5t68 112.5t74 108.5l-151 -24
q-99 -141 -148 -254zM2413 1389q0 28 -41 28q-28 0 -77.5 -33.5t-110.5 -94t-121.5 -125t-129.5 -146t-114 -136t-94.5 -116t-53.5 -66.5h4q78 17 179 74t197 137t178.5 166.5t133 170.5t50.5 141z" />
    <glyph glyph-name="I" unicode="I" horiz-adv-x="1138" 
d="M995 1114h25q0 -128 -36.5 -234.5t-97 -175t-136 -106t-156.5 -37.5q-112 0 -162.5 65.5t-50.5 168.5q0 94 44 193.5t117 183t161.5 151t184 105.5t177.5 38q85 0 242 -53t239 -53q151 0 293 94l8 -12q-101 -75 -198.5 -176.5t-177 -204t-159.5 -215.5t-153 -218
t-150 -205.5t-159 -183t-170 -145t-193.5 -97t-220.5 -34.5q-41 0 -82 7.5t-81.5 24t-65.5 48.5t-25 76q0 51 29 78.5t74 27.5q41 0 67.5 -26.5t26.5 -59.5q0 -37 -23 -61.5t-59 -24.5q-29 0 -29 -16q0 -11 17 -21.5t55 -19t88 -8.5q97 0 189 42t173 116.5t158.5 167.5
t160 206.5t161.5 220.5t178.5 222t196.5 200q171 150 254 205l-5 4q-172 -98 -290 -98q-81 0 -222 59q-147 60 -249 60q-84 0 -183.5 -56t-181.5 -141t-137 -194t-55 -207q0 -104 50.5 -156.5t137.5 -52.5q36 0 86 23t105 69.5t102 107.5t77.5 148t30.5 180z" />
    <glyph glyph-name="J" unicode="J" horiz-adv-x="1593" 
d="M1290 1143h25q0 -147 -67 -276.5t-183 -207t-250 -77.5q-205 0 -205 196q0 111 70.5 236.5t174.5 223.5t231 163t233 65q55 0 109.5 -15.5t98.5 -38t86.5 -44.5t91.5 -37.5t97 -15.5q21 0 43.5 3t38.5 5.5t41 11.5t35.5 12t39.5 16.5t34.5 16t39 19.5t35.5 18v-16
q-135 -91 -261 -215.5t-232.5 -261t-201.5 -268.5t-209 -282t-214 -259l4 -4q261 63 431.5 216t170.5 308q0 45 -4 82h17q12 -37 12 -82q0 -77 -22 -143.5t-55.5 -115.5t-88 -92t-106 -72t-124 -56.5t-126.5 -44t-129 -35.5q-70 -82 -140 -157.5t-166.5 -166t-183 -155.5
t-181 -109.5t-169.5 -44.5q-77 0 -110 39.5t-33 99.5q0 98 124 201t320 182.5t416 120.5q100 149 187.5 270.5t199 261.5t219 255.5t238 233t266.5 214.5l-4 4q-48 -27 -78.5 -42t-75 -28.5t-84.5 -13.5q-51 0 -100 15.5t-91 38t-86 45t-103 38t-124 15.5q-85 0 -188 -61
t-188 -151t-143 -202t-58 -205q0 -68 45.5 -118t118.5 -50q72 0 159.5 52t160 130t122 175t49.5 180zM12 -422q0 -50 32 -80t87 -30q62 0 132 33t130 83t125.5 118t115 127.5t104 123t85.5 94.5l-4 4q-89 -14 -195 -46t-214 -79t-197 -101t-145 -119.5t-56 -127.5z" />
    <glyph glyph-name="K" unicode="K" horiz-adv-x="2125" 
d="M1163 1176h17q-22 -71 -63 -138t-95.5 -123t-126.5 -90t-147 -34q-96 0 -153.5 56t-57.5 136q0 111 79.5 225t198.5 186t229 72q61 0 125.5 -27.5t111.5 -60.5t108.5 -60.5t117.5 -27.5q48 0 159.5 56.5t164.5 99.5l16 -12q-54 -37 -105 -79.5t-99.5 -93.5t-85 -91.5
t-84.5 -104t-74.5 -99t-77.5 -107.5t-72 -101l-12 -21l4 -2q29 23 86 23q32 0 72 -18.5t67 -53.5q60 32 122 93.5t114 132t106.5 149t111 149.5t116.5 129t133.5 92.5t152.5 34.5q94 0 141.5 -37t47.5 -106q0 -35 -23.5 -58.5t-60.5 -23.5q-88 0 -88 70q0 36 19 57t50 21
q10 0 17.5 5t7.5 13q0 35 -115 35q-57 0 -110 -33.5t-100 -90t-94.5 -126.5t-102.5 -147t-114.5 -146.5t-140.5 -131t-171 -95.5q43 -46 43 -90q0 -42 -34 -107.5t-74.5 -124.5t-74.5 -132t-34 -128q0 -42 43 -72t121 -30q89 0 196.5 56t192.5 135t142.5 167t57.5 150
q0 51 -25 78.5t-69 27.5q-35 0 -74.5 -12.5t-65.5 -24.5t-69.5 -43.5t-56.5 -41.5t-57 -46l-13 12q44 40 72.5 63t75 55t93.5 47.5t95 15.5q119 0 119 -152q0 -86 -53 -178t-138 -165.5t-200.5 -121t-231.5 -47.5q-105 0 -179.5 46.5t-74.5 142.5q0 51 22.5 103.5t54.5 98
l64 91t54.5 98.5t22.5 104q-50 -16 -99 -16q-48 0 -75 18.5t-27 71.5q-5 -2 -31.5 -45.5t-70.5 -110t-104.5 -147.5t-142.5 -160.5t-174 -146t-209.5 -107.5t-238.5 -41q-111 0 -178.5 38t-67.5 122q0 45 26.5 71.5t67.5 26.5q34 0 56 -21t22 -57q0 -38 -17 -60t-40 -22
q-37 0 -37 -16q0 -25 45.5 -41t118.5 -16q108 0 209 48.5t189.5 134.5t174.5 193.5t181.5 236t192 251t224 250t261.5 221.5l-5 4q-170 -98 -288 -98q-51 0 -98 17.5t-84.5 42t-75.5 49t-85.5 42t-99.5 17.5q-78 0 -170 -65t-155.5 -161.5t-63.5 -179.5t52 -129.5t120 -46.5
q77 0 171.5 60.5t165 144.5t93.5 156zM1253 696q0 -35 78 -41q29 0 99 17q-9 25 -41.5 43t-69.5 18q-66 0 -66 -37z" />
    <glyph glyph-name="L" unicode="L" horiz-adv-x="1818" 
d="M1212 381l-18 20q82 89 182 149t185 60q80 0 128 -50.5t48 -121.5q0 -137 -112.5 -248.5t-278 -169t-338.5 -57.5q-68 0 -149.5 16t-122.5 29t-126 41q-72 -39 -185 -62.5t-214 -23.5q-199 0 -199 109q0 50 43.5 81t141.5 31q159 0 405 -106q33 30 69 69t63.5 70.5
t67.5 85t60 79.5t62.5 88t53 77t54 80.5t43.5 66.5q-27 -2 -76 -2q-99 0 -182 23t-137.5 60.5t-92.5 86.5t-54.5 99t-16.5 100q0 94 40.5 166t112 115.5t163 65.5t200.5 22q236 0 443 -123l-17 -13q-214 111 -430 111q-202 0 -320 -100.5t-118 -272.5q0 -134 119.5 -224.5
t296.5 -90.5q55 0 92 4q49 77 120.5 169t169.5 195.5t196.5 187t207 138.5t197.5 55q66 0 105.5 -32t39.5 -99q0 -82 -73 -171.5t-183.5 -164t-236.5 -138t-236 -103t-178 -49.5q-109 -158 -286.5 -355.5t-301.5 -287.5q7 -2 40 -12t43 -13t39.5 -11.5t43 -11.5t40 -9.5
t44 -9t40.5 -6t44.5 -4.5t42.5 -1q120 0 249.5 46.5t225.5 114.5t158.5 146t62.5 139q0 62 -38.5 107t-112.5 45q-77 0 -173 -60.5t-176 -144.5zM213 -12q67 0 181 19t188 54q-127 48 -216.5 73.5t-164.5 25.5q-89 0 -126.5 -25t-37.5 -63q0 -84 176 -84zM2109 1331
q0 54 -31.5 82.5t-86.5 28.5q-47 0 -100 -23t-101.5 -57t-108 -92.5t-105 -109.5t-107.5 -130t-101 -131.5t-100 -135.5q-13 -17 -19 -26q72 14 179 55t225 103.5t220 132.5t169 151.5t67 151.5z" />
    <glyph glyph-name="M" unicode="M" horiz-adv-x="2502" 
d="M1991 344l-17 12q45 109 159 206t194 97q69 0 108 -37t39 -106q0 -93 -58.5 -193.5t-149 -179t-208 -129.5t-227.5 -51q-91 0 -144 56t-53 149q0 57 27 131t76.5 154.5t108.5 163.5t133.5 170t140 160.5t139 149t120 122t94.5 93t50 48.5q9 9 20 19.5t17.5 16.5
t12.5 12.5t9 10.5t3 6q0 7 -7 12t-18 5q-71 0 -183 -81t-238 -210.5t-265 -286t-275.5 -312.5t-256 -285.5t-220 -210.5t-155.5 -81q-32 0 -49 17t-17 41q0 59 66 184q84 156 385 509.5t571 623.5q59 59 59 75q0 6 -5.5 11.5t-14.5 5.5q-61 0 -189 -100.5t-289.5 -263
t-321 -331.5t-328 -344.5t-265.5 -263.5q-48 -44 -76 -66.5t-76 -52.5t-102 -43.5t-118 -13.5q-79 0 -132 36.5t-53 111.5q0 54 23.5 82t66.5 28q39 0 60.5 -23.5t21.5 -62.5q0 -42 -22 -64t-60 -22q-36 0 -36 -12q0 -6 13.5 -17t45.5 -21.5t72 -10.5q83 0 155 32t158 105
q95 81 235 223t271.5 284.5t280 296t269.5 270t229.5 192t170.5 75.5q27 0 46.5 -13t19.5 -36q0 -27 -26 -68.5t-105 -131.5q-951 -1093 -951 -1201q0 -16 21 -16q48 0 142.5 81t212 210t253 285.5t276.5 313t270.5 285.5t247.5 210t195 81q29 0 47.5 -12.5t18.5 -36.5
q0 -36 -82 -133q-6 -7 -85 -94t-169 -187t-203 -236t-201.5 -253.5t-149.5 -227t-61 -167.5q0 -131 152 -131q67 0 173.5 60t203 144t167 179.5t70.5 160.5q0 51 -33.5 77t-88.5 26q-79 0 -183.5 -96t-152.5 -195z" />
    <glyph glyph-name="N" unicode="N" horiz-adv-x="1593" 
d="M1552 1479l13 -17q-42 -32 -75 -71t-55 -88t-37 -92.5t-25.5 -107t-16 -108t-13.5 -118.5q-3 -26 -4 -39q-10 -93 -19.5 -157.5t-32 -155t-53 -161.5t-83 -152t-121.5 -151l4 -4q95 82 202.5 208.5t201 254.5t195 266.5t199 257.5t196.5 215t205 151.5t208 55.5
q69 0 110.5 -32t41.5 -82q0 -44 -28.5 -69.5t-72.5 -25.5q-41 0 -68.5 24t-27.5 58q0 19 8.5 35t18 23.5t18 15t8.5 12.5q0 17 -41 17q-74 0 -158 -44.5t-167 -122t-170 -178t-174 -215.5t-173.5 -231.5t-173 -229.5t-167 -206t-163 -163.5t-153.5 -100.5l-12 16
q38 21 69 48t55.5 63.5t43 69.5t33.5 83t25 87t19.5 97.5t15 97.5t13.5 105q10 78 16 122t19 117.5t26 121t35 112t48.5 111.5t64 97.5t82.5 91.5l-4 4q-101 -75 -213 -197t-209.5 -252t-199 -271.5t-197.5 -266.5t-189 -226t-189 -160t-183 -59q-94 0 -139 39.5t-45 95.5
q0 51 26.5 81t75.5 30q38 0 66 -23t28 -59q0 -41 -24.5 -65.5t-57.5 -24.5t-33 -12q0 -16 26.5 -26.5t76.5 -10.5q82 0 180.5 69t198.5 183.5t206.5 255t219 292t220.5 286t226.5 245t222.5 160.5z" />
    <glyph glyph-name="O" unicode="O" horiz-adv-x="1363" 
d="M1339 958h25q0 -100 -51.5 -197.5t-139 -160.5t-182.5 -63q-92 0 -142 42t-50 126q0 82 57 171.5t140.5 156.5t183 111t180.5 44q107 0 172 -65t65 -197q0 -48 -23.5 -114.5t-66.5 -143t-107 -158.5t-140.5 -160.5t-172.5 -148.5t-198 -123t-221 -84t-238 -31
q-180 0 -264 92t-84 244q0 123 67.5 262.5t178.5 266t256 245t295.5 204.5t302.5 137.5t272 51.5q177 0 279 -77t102 -234q0 -63 -25 -121.5t-50 -89t-72 -80.5l-21 13q69 73 106 134.5t37 139.5q0 145 -91 218t-240 73q-103 0 -245.5 -62t-287 -162t-288 -232t-254.5 -267
t-179.5 -272t-68.5 -242q0 -106 71.5 -161.5t202.5 -55.5q151 0 303 52.5t274.5 137t230 189t180 209t114 197t41.5 153.5q0 107 -55.5 172t-157.5 65q-107 0 -234.5 -73.5t-215 -182.5t-87.5 -202q0 -73 45 -108.5t123 -35.5q73 0 155 65t136.5 159t56.5 173z" />
    <glyph glyph-name="P" unicode="P" horiz-adv-x="1363" 
d="M1036 1143h25q0 -48 -22.5 -111.5t-63.5 -133.5t-103.5 -137t-136.5 -121t-170 -87t-196 -33q-122 0 -196.5 63t-74.5 175q0 91 64.5 191.5t179.5 191t259.5 164.5t321 117.5t347.5 43.5q226 0 375 -90q93 54 149 66l4 -25q-79 -21 -129 -57q178 -125 178 -307
q0 -77 -29.5 -144t-80.5 -114.5t-117.5 -81t-141 -50t-151.5 -16.5q-45 0 -119 8v25q74 -8 115 -8q57 0 119 17t121 51.5t106 81.5t76 112.5t29 138.5q0 162 -132 266q-62 -38 -128.5 -110.5t-128.5 -161t-130 -193t-138.5 -209.5t-147.5 -208t-164.5 -191.5t-181.5 -156.5
t-207 -107t-232 -39q-112 0 -178.5 47t-66.5 119q0 47 32 75.5t68 28.5q40 0 68 -25.5t28 -68.5q0 -34 -27.5 -51.5t-55 -23t-27.5 -11.5q0 -25 49.5 -45t113.5 -20q91 0 178.5 37t164 102.5t151.5 150.5t146.5 185t142 203t147 207.5t152 194.5t165 167.5t179.5 124.5
q-124 82 -348 82q-154 0 -320.5 -41.5t-310.5 -112.5t-260.5 -158.5t-184 -186.5t-67.5 -189q0 -93 59.5 -151t157.5 -58q78 0 164 33.5t161 86.5t144.5 119.5t118.5 133t78.5 126.5t29.5 99z" />
    <glyph glyph-name="Q" unicode="Q" horiz-adv-x="1441" 
d="M717 569h-25q18 83 67 178t120.5 183.5t154 161.5t175 117t175.5 44q110 0 174 -59.5t64 -173.5q0 -121 -53 -251t-141.5 -244t-206 -217.5t-242.5 -178t-255 -119.5t-241 -47v-4q71 -19 243 -93.5t216 -74.5q55 0 119.5 49t114.5 107l8 -13q-51 -79 -149 -160t-183 -81
q-56 0 -128 32.5t-130.5 72t-126.5 72t-115 32.5q-20 0 -38 -2.5t-37.5 -10.5t-30 -12t-31.5 -20t-27 -20t-31.5 -25.5t-29.5 -24.5l-8 8q118 133 233 168v4q-148 21 -209 113t-61 248q0 99 61.5 225t163.5 251t240.5 245.5t286.5 212t308.5 148t299.5 56.5q36 0 73 -4.5
t80.5 -15.5t80 -32t67.5 -51t49 -76t18 -103q0 -24 -3.5 -46t-13.5 -46t-15.5 -38t-24 -40.5t-22.5 -33t-27.5 -36.5t-24.5 -31l-12 13q40 54 60 84.5t39.5 81t19.5 100.5q0 81 -53 139t-134.5 84.5t-181.5 26.5q-98 0 -236 -67t-278.5 -173.5t-280.5 -242.5t-248 -270
t-175.5 -260t-67.5 -208q0 -78 46 -135.5t113 -84t144 -26.5q105 0 236.5 54.5t258 141.5t249 199.5t214.5 226.5t148.5 224.5t56.5 190.5q0 217 -221 217q-97 0 -208 -66.5t-202 -165.5t-159.5 -214.5t-89.5 -213.5z" />
    <glyph glyph-name="R" unicode="R" horiz-adv-x="2048" 
d="M1180 1253h24q0 -104 -48 -213.5t-123.5 -195.5t-176.5 -141.5t-201 -55.5q-85 0 -132.5 52t-47.5 137q0 112 89.5 227.5t230.5 203t324 143.5t360 56q97 0 184 -16t139 -41q64 30 135 45l9 -16q-71 -23 -115 -43q85 -44 136.5 -112.5t51.5 -156.5q0 -75 -41.5 -141.5
t-107 -112.5t-139 -76.5t-144.5 -41.5q23 -54 23 -90q0 -39 -31.5 -93t-76.5 -109t-90.5 -112.5t-77 -120t-31.5 -114.5q0 -63 45 -95t110 -32q87 0 206.5 83.5t206.5 200.5t87 205q0 42 -29.5 67t-73.5 25q-54 0 -116 -48t-113 -107l-20 12q145 168 249 168q55 0 91 -32
t36 -93q0 -78 -48.5 -168.5t-122.5 -164.5t-169.5 -123.5t-183.5 -49.5q-101 0 -165 64.5t-64 165.5q0 61 33 126t79.5 121t93.5 108.5t80 105.5t33 96q-32 -9 -51 -11q-30 -6 -67 -6q-55 0 -93.5 32.5t-38.5 78.5h-4q-26 -36 -75.5 -107t-82 -117.5t-85 -117t-93 -118.5
t-97.5 -109t-107 -102t-113 -84t-123 -68.5t-130.5 -41.5t-141.5 -16q-112 0 -179 47t-67 119q0 47 32 75.5t68 28.5q40 0 68.5 -25.5t28.5 -68.5q0 -34 -27.5 -51.5t-55.5 -23t-28 -11.5q0 -25 50 -45t114 -20q86 0 173.5 41t167 112.5t160.5 164.5t160.5 200t158.5 216
t164 215t168.5 195t178.5 158.5t188 102.5q-57 24 -137.5 36.5t-136.5 12.5q-159 0 -314.5 -39t-275.5 -103t-213 -142t-142.5 -159t-49.5 -151q0 -76 38 -126t113 -50q95 0 220 91t217 230t92 260zM1921 1159q0 147 -123 219q-113 -70 -224 -180t-263 -326l4 -4
q28 17 82 17q47 0 100.5 -26t81.5 -81q125 29 233.5 145t108.5 236zM1438 758q72 0 110 12q-16 42 -62 66t-95 24q-68 0 -68 -33q0 -23 31.5 -46t83.5 -23z" />
    <glyph glyph-name="S" unicode="S" horiz-adv-x="1212" 
d="M-57 127q0 47 24 76.5t66 29.5q40 0 63 -22t23 -59q0 -35 -20 -56.5t-46 -21.5q-20 0 -28.5 -5.5t-8.5 -19.5q0 -23 54 -42t139 -19t168 35.5t146.5 88t132.5 130.5t117.5 145t109.5 150.5t100 130.5q-119 2 -214 22.5t-166 62t-109.5 109.5t-38.5 158t48.5 165
t125.5 122t166 72.5t176 25.5q208 0 422 -111l-13 -16q-215 102 -430 102q-79 0 -158 -25.5t-143.5 -71t-104.5 -114.5t-40 -149q0 -328 491 -328q126 201 321.5 383t381.5 286.5t305 104.5q44 0 69 -26.5t25 -69.5q0 -49 -47.5 -126t-139 -165.5t-208.5 -170.5
t-272.5 -147.5t-313.5 -90.5q-62 -97 -129.5 -187t-160.5 -188t-187.5 -168.5t-208.5 -117t-225 -46.5q-112 0 -187 40.5t-75 123.5zM2073 1372q0 70 -78 70q-73 0 -174 -58t-196.5 -142.5t-196 -191t-171.5 -193.5t-124 -159q147 25 294.5 88.5t260.5 142.5t202 164
t136 159t47 120z" />
    <glyph glyph-name="T" unicode="T" horiz-adv-x="1138" 
d="M1780 1262v-21q-87 -9 -172.5 -58.5t-160.5 -125.5t-151 -172.5t-151.5 -200t-154 -207t-166.5 -196t-180.5 -163.5t-205 -113t-231.5 -42q-109 0 -183.5 43t-74.5 129q0 42 27 72.5t71 30.5q42 0 70 -22.5t28 -63.5q0 -35 -22 -60.5t-64 -25.5q-28 0 -28 -21
q0 -20 57.5 -38.5t130.5 -18.5q93 0 181 41.5t163 112.5t148.5 163t146 194.5t147.5 206t160 199t175.5 171.5t204 126t235.5 60zM885 1171l22 9q45 -74 45 -140q0 -93 -34 -179t-88.5 -146.5t-124 -96.5t-140.5 -36q-84 0 -135 57t-51 133q0 111 56 218.5t150.5 192
t214 149t253 99.5t260.5 35q122 0 350 -39q222 -38 350 -38q116 0 176 77l9 -12q-38 -83 -115.5 -123.5t-175.5 -40.5q-108 0 -344 39q-232 39 -381 39q-131 0 -270 -47.5t-251.5 -126t-185 -189.5t-72.5 -227q0 -75 46.5 -123.5t109.5 -48.5q64 0 133 47t119.5 114.5
t83.5 143.5t33 133q0 47 -43 127z" />
    <glyph glyph-name="U" unicode="U" horiz-adv-x="1896" 
d="M1905 1323h135l-881 -997q-94 -108 -94 -203q0 -73 41 -104t119 -31q95 0 201 58t186 140t133 170t53 148q0 33 -26 57.5t-60 24.5q-33 0 -72 -20t-82.5 -59t-73 -69t-72.5 -77.5t-52 -57.5l-17 16q11 11 54 57t76.5 79t79 72.5t87.5 61t76 21.5q47 0 77 -34t30 -97
q0 -87 -59 -182t-146.5 -167.5t-192.5 -119.5t-192 -47q-109 0 -175.5 57.5t-66.5 159.5q0 79 68 176l-4 4q-191 -197 -329.5 -297t-248.5 -100q-166 0 -166 172q0 66 60 166t150 202.5t195.5 218t195.5 213t150 187t60 140.5q0 81 -52 130.5t-128 49.5q-65 0 -147 -26
t-166 -70.5t-164.5 -107.5t-142.5 -132t-100 -150t-38 -157q0 -67 37.5 -105.5t93.5 -38.5q45 0 111 35.5t129.5 92.5t108.5 141.5t45 169.5v53h24v-82q0 -110 -60.5 -211t-157.5 -162t-200 -61q-67 0 -111 43.5t-44 126.5t39.5 169t104.5 157.5t147.5 135.5t168 108
t167 69.5t143.5 25.5q135 0 213 -66.5t78 -170.5q0 -62 -47.5 -146.5t-123.5 -173t-167.5 -183.5t-183.5 -187.5t-168 -175t-123.5 -156t-47.5 -121.5q0 -57 33.5 -77.5t98.5 -20.5q51 0 123 37t139 89t143 122t124 120t93 99z" />
    <glyph glyph-name="V" unicode="V" horiz-adv-x="1138" 
d="M799 1118h12q0 -228 -120.5 -366t-317.5 -138q-90 0 -147.5 65t-57.5 157q0 98 40.5 195.5t107 174t147.5 136t167.5 92t162.5 32.5q59 0 120 -27t103.5 -59t97.5 -59t103 -27q38 0 75.5 10.5t81.5 35.5t65 38.5t68 46.5l13 -12q-101 -77 -194 -180.5t-166 -209
t-147 -219.5t-151 -224.5t-162 -212t-197 -194.5t-241 -159l4 -4q151 33 296.5 103.5t265.5 161t234.5 198.5t211 219.5t185.5 220.5t167 204t147.5 168t135.5 115t123 42q65 0 106 -32t41 -87q0 -44 -28 -73t-66 -29q-49 0 -76 26t-27 72q0 30 21.5 52t36.5 22q4 0 8 3.5
t4 8.5q0 12 -33 12q-37 0 -81 -26t-109 -95t-107.5 -118.5t-136.5 -164.5q-99 -121 -154.5 -187t-165.5 -187t-191 -194.5t-202.5 -169t-229 -152t-241 -102t-266.5 -58.5v25q71 10 143.5 58.5t137.5 122t137.5 170t140 199t148.5 214t159.5 211t176 193t196.5 157.5l-4 4
l-44 -22t-42.5 -21t-37 -16t-41.5 -14t-41 -7.5t-50 -3.5q-44 0 -94.5 25t-91.5 55t-104.5 55t-131.5 25q-88 0 -179.5 -52.5t-161 -133t-114 -179.5t-44.5 -188q0 -86 50 -143.5t134 -57.5q98 0 197.5 79.5t161 191.5t63.5 208z" />
    <glyph glyph-name="W" unicode="W" horiz-adv-x="1667" 
d="M762 -37l-8 25q74 34 151.5 106.5t150 167.5t147.5 205.5t156.5 232.5t164 236t183 227.5t200.5 196.5l-4 4q-141 -81 -281 -199.5t-252.5 -239t-226.5 -250.5t-224 -246t-224 -213.5t-246.5 -164.5t-272.5 -88l-8 25q77 35 156 108.5t152 169.5t149.5 207.5t162 232.5
t175.5 233.5t204.5 221.5t235.5 187l-4 4q-11 -6 -41.5 -24.5t-45 -26.5t-42 -22t-46.5 -20.5t-44.5 -12t-49.5 -5.5q-48 0 -107.5 25t-106.5 55t-107 55t-109 25q-59 0 -131 -31t-139.5 -85t-124 -120t-91 -142.5t-34.5 -145.5q0 -96 45.5 -163t130.5 -67q78 0 159 50.5
t140.5 126t97.5 164.5t38 163h24q0 -96 -30.5 -189.5t-85.5 -169.5t-140 -122.5t-186 -46.5q-217 0 -217 233q0 105 59.5 217.5t149 197.5t200 140t207.5 55q65 0 134 -25.5t116.5 -56t98 -56t83.5 -25.5q36 0 80 15t72.5 30t78 44.5t64.5 37.5l12 -21q-105 -74 -202 -176.5
t-173 -208.5t-151.5 -221t-152.5 -227t-158.5 -213.5t-186 -193t-221.5 -153.5v-4q104 26 205.5 81.5t190.5 129.5t178 163.5t175 187.5t173 197.5t181.5 197t190 182.5t209 158.5t230.5 120.5l12 -21q-59 -31 -126.5 -110t-134 -183.5t-140.5 -227t-158 -250.5
t-172.5 -243.5t-199 -217t-224.5 -161.5v-4q132 35 263 106.5t241.5 163t218 200.5t200.5 221t180.5 221t165.5 204.5t148.5 168.5t137.5 115t124 42q64 0 102 -33t38 -86q0 -55 -28.5 -80.5t-74.5 -25.5q-47 0 -70.5 27t-23.5 67q0 31 16.5 52.5t34.5 25.5q19 3 19 16
t-25 13q-42 0 -98 -38t-117 -103t-136 -153t-153 -188t-170.5 -207t-186.5 -210t-203 -198.5t-218 -171t-233 -128.5t-246 -70z" />
    <glyph glyph-name="X" unicode="X" horiz-adv-x="1744" 
d="M860 618l25 46q79 -9 209 -9q348 429 348 602q0 92 -56 138.5t-149 46.5q-90 0 -205 -54.5t-213 -137t-165.5 -188t-67.5 -198.5q0 -66 40.5 -108.5t106.5 -42.5q61 0 132.5 43t129.5 107.5t96.5 145t38.5 150.5q0 41 -4 78l17 4q12 -43 12 -94q0 -112 -56 -217.5
t-154.5 -173.5t-211.5 -68q-76 0 -124 49t-48 123q0 83 46.5 172.5t122.5 165t166.5 137t186.5 96.5t174 35q125 0 192 -64t67 -169q0 -92 -37 -160l4 -4q52 60 116.5 119t142 115.5t163 91.5t159.5 35q92 0 154.5 -45.5t62.5 -127.5q0 -45 -25 -73.5t-73 -28.5
q-50 0 -74 25.5t-24 68.5q0 74 69 90q37 8 37 21q0 22 -44 33.5t-91 11.5q-66 0 -137 -29t-140.5 -83.5t-131.5 -113t-129.5 -139.5t-113.5 -140t-104.5 -136.5t-82.5 -108.5q116 0 180 9l-17 -41q-90 8 -172 8q-221 -316 -221 -467q0 -93 45 -134.5t139 -41.5
q70 0 157 52.5t158 128.5t120 165.5t49 157.5q0 41 -31 71.5t-76 30.5q-87 0 -181.5 -95t-133.5 -192h-25q24 67 75.5 137t124.5 122t140 52q131 0 131 -155q0 -83 -49.5 -174t-124.5 -162t-168.5 -117.5t-177.5 -46.5q-108 0 -164.5 65.5t-56.5 164.5q0 90 29 143l-9 8
q-381 -381 -696 -381q-115 0 -182.5 42.5t-67.5 133.5q0 37 27.5 63.5t66.5 26.5q43 0 67 -26t24 -60q0 -37 -20.5 -61.5t-53.5 -24.5q-13 0 -23 -5.5t-10 -14.5q0 -19 54.5 -34t121.5 -15q330 0 819 643q-105 0 -225 -13z" />
    <glyph glyph-name="Y" unicode="Y" horiz-adv-x="1744" 
d="M1217 438l806 918h144l-1192 -1340q92 11 183 35t185.5 69t165.5 104t116.5 145.5t45.5 187.5q0 16 -8 66h25q8 -66 8 -103q0 -425 -746 -536q-261 -305 -442.5 -435.5t-351.5 -130.5q-66 0 -111 37.5t-45 114.5q0 52 23 96.5t81 90.5t151.5 86t240 78t340.5 71l260 297
l-4 4q-111 -105 -233.5 -176.5t-223.5 -71.5q-90 0 -133 41t-43 107q0 94 102 204l625 693q84 94 84 167q0 62 -34 105.5t-83.5 61.5t-108.5 18q-88 0 -192.5 -37.5t-201 -102.5t-177.5 -145t-129.5 -173t-48.5 -177q0 -75 48.5 -123.5t127.5 -48.5q84 0 185 76t171 188
t70 207q0 61 -12 90h20q17 -70 17 -102q0 -117 -64.5 -229.5t-171.5 -183.5t-223 -71q-95 0 -144 58t-49 135q0 83 37.5 168.5t99 157t141.5 135t164.5 107.5t168 69.5t151.5 25.5q140 0 225.5 -68t85.5 -186q0 -115 -147 -270l-582 -631q-82 -88 -82 -159q0 -43 27.5 -62.5
t71.5 -19.5q64 0 156 43.5t176.5 106t152 121t101.5 97.5zM25 -438q0 -54 36 -86.5t99 -32.5q43 0 81 9.5t83.5 36t88.5 61t108 98.5t129.5 132.5t164.5 178.5l-4 4q-419 -72 -602.5 -168t-183.5 -233z" />
    <glyph glyph-name="Z" unicode="Z" horiz-adv-x="1970" 
d="M1552 778l-24 -37h-328q-44 -48 -129.5 -145.5t-155 -172.5t-129.5 -132q62 -24 156 -73t164 -86t161.5 -66t170.5 -29q60 0 135 29.5t140.5 76t110 111t44.5 127.5q0 78 -45 119t-123 41q-94 0 -180.5 -66t-151.5 -176h-25q56 111 149.5 188.5t207.5 77.5
q82 0 137 -47.5t55 -128.5q0 -73 -41 -141.5t-104.5 -118.5t-139 -88.5t-147 -58t-125.5 -19.5q-43 0 -81.5 5t-93.5 24t-85.5 30t-111.5 51t-113 56.5t-145 75.5q-55 -47 -82.5 -69.5t-83.5 -62t-96.5 -59t-96 -35.5t-108.5 -16q-86 0 -133.5 48t-47.5 132q0 59 27.5 104.5
t73.5 72t99.5 40t111.5 13.5q203 0 389 -74q44 46 187 210.5t206 231.5q-111 0 -225 -16l28 41h217q205 248 439 451q-68 5 -150.5 30t-146.5 51.5t-147 48t-154 21.5q-69 0 -159.5 -49t-172 -125.5t-137.5 -181.5t-56 -205q0 -71 33.5 -113.5t91.5 -42.5q59 0 116.5 37.5
t101.5 96t78.5 126.5t52.5 131.5t18 108.5h25v-49q0 -113 -53 -223t-143.5 -181t-189.5 -71q-72 0 -113.5 45.5t-41.5 140.5q0 96 46 195.5t120.5 179.5t162 144t176.5 99t158 35q64 0 139.5 -22t134 -50t136 -65t127.5 -55q97 82 152.5 119t87.5 37q23 0 39 -14t16 -36
q0 -43 -60.5 -82t-134 -60t-125.5 -21q-62 -60 -131.5 -135t-159 -175.5t-126.5 -140.5q184 0 331 12zM82 139q0 -151 168 -151q167 0 426 229q-242 107 -377 107q-92 0 -154.5 -48.5t-62.5 -136.5zM1933 1380q0 11 -8.5 18t-21.5 7q-28 0 -75.5 -30.5t-139.5 -108.5
q80 0 162.5 36.5t82.5 77.5z" />
    <glyph glyph-name="bracketleft" unicode="[" horiz-adv-x="835" 
d="M-139 -266l1315 1732h317l-18 -24h-222l-1278 -1684h228l-19 -24h-323z" />
    <glyph glyph-name="backslash" unicode="\" horiz-adv-x="835" 
d="M848 -37h-78q-163 774 -436 1503h78q44 -195 187 -679t249 -824z" />
    <glyph glyph-name="bracketright" unicode="]" horiz-adv-x="835" 
d="M-121 -242l1278 1684h-227l18 24h324l-1315 -1732h-317l18 24h221z" />
    <glyph glyph-name="asciicircum" unicode="^" horiz-adv-x="1363" 
d="M1288 459l-360 688l-361 -688h-57l393 749h49l394 -749h-58z" />
    <glyph glyph-name="underscore" unicode="_" horiz-adv-x="1024" 
d="M0 -256v102h1024v-102h-1024z" />
    <glyph glyph-name="grave" unicode="`" horiz-adv-x="532" 
d="M356 1053h107q22 -148 102 -234l-12 -12q-153 103 -197 246z" />
    <glyph glyph-name="a" unicode="a" 
d="M856 606h143q-139 -133 -467 -495q-49 -54 -49 -80q0 -43 49 -43q80 0 260 127.5t273 224.5l20 -12q-62 -65 -158 -144.5t-214.5 -150t-188.5 -70.5q-42 0 -66 25.5t-24 56.5q0 46 19 86h-4q-177 -168 -306 -168q-62 0 -96.5 35.5t-34.5 99.5q0 73 47.5 153t121.5 145.5
t157.5 120t161 84.5t127.5 30q54 0 90.5 -23.5t36.5 -62.5q0 -21 -9 -49h5zM729 535q0 33 -25 52t-55 19q-49 0 -96.5 -26.5t-139.5 -112t-263 -266.5q-89 -93 -89 -150q0 -28 22 -45.5t60 -17.5q69 0 173 70.5t193.5 163t154.5 183.5t65 130z" />
    <glyph glyph-name="b" unicode="b" horiz-adv-x="835" 
d="M1335 1360q0 45 -39 45q-132 0 -747 -737h4q367 171 577.5 361t204.5 331zM922 365v-29q-81 -70 -144 -70q-53 0 -94 41q-171 -181 -289.5 -262.5t-226.5 -81.5q-58 0 -92.5 34.5t-34.5 92.5q0 121 94 246q134 180 375 436t474 457t312 201q28 0 46 -19t18 -55
q0 -108 -111 -240.5t-301.5 -259.5t-423.5 -225q-260 -292 -347 -412t-87 -170q0 -61 86 -61q106 0 221.5 85.5t270.5 254.5q-9 23 -9 69q0 34 20 83t53.5 87.5t66.5 38.5q15 0 26 -15t11 -34q0 -25 -15.5 -57t-32 -54.5t-48.5 -63.5t-44 -58q33 -33 82 -33q56 0 144 74z
" />
    <glyph glyph-name="c" unicode="c" horiz-adv-x="606" 
d="M705 365v-33q-190 -189 -321 -279t-232 -90q-69 0 -104.5 37t-35.5 104q0 97 101.5 223.5t236.5 215t228 88.5q59 0 93 -29.5t34 -83.5q0 -42 -22.5 -63t-55.5 -21q-30 0 -50 20t-20 46q0 29 17 49t44 20q35 0 46 -16l4 4q-5 49 -78 49q-57 0 -186 -121.5t-238 -263.5
q-67 -88 -86 -120t-19 -54q0 -24 24 -41.5t62 -17.5q108 0 238 94.5t320 282.5z" />
    <glyph glyph-name="d" unicode="d" 
d="M725 471l696 741h144l-1028 -1075q-50 -52 -68 -76t-18 -41q0 -32 57 -32q85 0 206 80.5t335 275.5l8 -20q-233 -210 -346.5 -285.5t-214.5 -75.5q-35 0 -65 18.5t-30 59.5q0 49 19 80l-4 4q-162 -162 -279 -162q-67 0 -96 38t-29 93q0 65 40.5 140.5t107 142
t144.5 121.5t159.5 87.5t146.5 32.5q58 0 92.5 -19.5t34.5 -57.5q0 -20 -16 -70h4zM713 528q0 31 -20 48.5t-54 17.5q-70 0 -246.5 -142t-265.5 -264q-41 -58 -53.5 -84.5t-12.5 -50.5q0 -27 24 -46t60 -19q75 0 214.5 116t246.5 247t107 177z" />
    <glyph glyph-name="e" unicode="e" horiz-adv-x="684" 
d="M795 338v-25q-82 -71 -154.5 -125.5t-160.5 -109.5t-175.5 -85t-165.5 -30q-53 0 -90 24.5t-37 78.5q0 79 66.5 180.5t160.5 185t202.5 141.5t187.5 58q41 0 66.5 -26t25.5 -66q0 -67 -57.5 -126t-140 -94.5t-166 -56t-144.5 -20.5q-139 -150 -139 -205q0 -49 82 -49
q125 0 280 90t359 260zM672 565q0 18 -11.5 29.5t-31.5 11.5q-56 0 -143 -76t-253 -264q78 0 160 31t142 76.5t98.5 98t38.5 93.5z" />
    <glyph glyph-name="f" unicode="f" horiz-adv-x="684" 
d="M-475 -532l684 765q-98 43 -98 82q0 14 9 21.5t19 7.5q25 0 33 -16q23 -47 61 -70q394 448 651 711t388.5 362t202.5 99q86 0 86 -78q0 -83 -67.5 -184.5t-173 -194t-228 -175t-239 -139.5t-198.5 -77l-319 -361q16 -4 70 -4q81 0 189 42t179 93v-28q-52 -38 -165 -84.5
t-212 -46.5q-66 0 -82 8l-630 -733h-160zM1536 1352q0 22 -12 37.5t-37 15.5q-66 0 -246 -172t-569 -623h4q111 38 233.5 103.5t232.5 146t199.5 166.5t142 172t52.5 154z" />
    <glyph glyph-name="g" unicode="g" horiz-adv-x="909" 
d="M752 504l82 102h135l-514 -594h4q293 111 522 320l14 -13q-103 -103 -269 -200.5t-306 -141.5q-93 -112 -192 -212t-201 -185.5t-198 -135.5t-167 -50q-64 0 -93.5 28t-29.5 74q0 103 205.5 228t525.5 231l133 151v5q-153 -136 -270 -136q-57 0 -94 33t-37 90
q0 107 106 236.5t258 219t275 89.5q119 0 119 -84q0 -25 -12 -55h4zM-436 -508q0 -74 94 -74q83 0 185.5 89t404.5 415l-4 4q-327 -120 -503.5 -230.5t-176.5 -203.5zM735 545q0 33 -20.5 53t-61.5 20q-92 0 -265.5 -154t-278.5 -302q-46 -64 -46 -105q0 -27 22.5 -42
t64.5 -15q57 0 136 46t154.5 116t140 142.5t109.5 135.5q28 40 36.5 61t8.5 44z" />
    <glyph glyph-name="h" unicode="h" horiz-adv-x="909" 
d="M-152 0l496 535q438 474 682 684.5t354 210.5q30 0 50 -24t20 -60q0 -100 -143.5 -239t-348.5 -263.5t-419 -214.5l-191 -215v-4q47 36 65 50t71 51.5t85.5 55.5t75 34.5t72.5 16.5q50 0 80 -32t30 -86q0 -47 -35.5 -107.5t-86 -116t-101 -107t-86 -93t-35.5 -60.5
q0 -12 9 -20t24 -8q50 0 158 81t325 277v-29q-184 -172 -303.5 -263t-179.5 -91q-37 0 -59.5 23.5t-22.5 70.5q0 52 54 128.5t118 140t118 125t54 86.5t-17.5 41t-47.5 16q-103 0 -309 -168.5t-412 -425.5h-144zM584 674l2 -4q73 31 175 85.5t219 130t215.5 152.5t164 158.5
t65.5 142.5q0 33 -12.5 49.5t-44.5 16.5q-21 0 -50.5 -14t-72 -47.5t-81 -66t-100 -94.5t-105.5 -106t-121 -127t-122 -132t-132 -144z" />
    <glyph glyph-name="i" unicode="i" horiz-adv-x="532" 
d="M74 217l340 389h131l-359 -401q-88 -99 -116.5 -135t-28.5 -50q0 -32 53 -32q58 0 155 70t303 243q38 32 58 49l15 -14q-200 -175 -334.5 -274t-200.5 -99q-98 0 -98 98q0 61 82 156zM668 950q0 31 21 52.5t52 21.5t52.5 -21.5t21.5 -52.5t-21.5 -52t-52.5 -21t-52 21
t-21 52z" />
    <glyph glyph-name="j" unicode="j" horiz-adv-x="532" 
d="M-160 -37l586 651h139l-555 -600l4 -4q337 140 613 375l16 -16q-149 -131 -325.5 -233t-344.5 -159q-540 -583 -755 -583q-52 0 -75.5 19t-23.5 59q0 78 65 146.5t218.5 149.5t437.5 195zM-856 -512q0 -33 20 -51.5t54 -18.5q43 0 75 12t98 67t158.5 151t262.5 280l-5 4
q-352 -146 -507.5 -251.5t-155.5 -192.5zM668 950q0 31 21 52.5t52 21.5t52.5 -21.5t21.5 -52.5t-21.5 -52t-52.5 -21t-52 21t-21 52z" />
    <glyph glyph-name="k" unicode="k" horiz-adv-x="909" 
d="M-139 0l516 584q749 846 954 846q37 0 59.5 -21t22.5 -57q0 -78 -66 -171.5t-168 -177t-223 -161t-234 -132.5t-198 -83l-262 -308h117q54 0 99 16t76.5 41t59 55.5t52 61t50 55.5t58 40.5t70.5 15.5q43 0 70.5 -22.5t27.5 -59.5q0 -35 -23 -56.5t-55 -21.5
q-29 0 -49 20.5t-20 53.5q0 21 13.5 40.5t27.5 21.5q16 0 16 6q0 8 -21 8q-26 0 -51.5 -21.5t-47 -52.5t-50.5 -67.5t-59.5 -67.5t-77 -51.5t-99.5 -20.5v-4q70 -4 101 -32.5t31 -67.5q0 -35 -45.5 -114t-45.5 -87t9.5 -14t19.5 -6q49 0 154 73t196 155t138 136v-37
q-356 -352 -488 -352q-102 0 -102 90q0 32 45 117.5t45 91.5q0 33 -94 33h-168l-254 -295h-127zM1389 1356q0 24 -16 36.5t-42 12.5q-49 0 -171.5 -106t-234.5 -225.5t-237 -259t-143 -157.5l4 -4q122 48 262.5 128t272 176t218.5 204t87 195z" />
    <glyph glyph-name="l" unicode="l" horiz-adv-x="532" 
d="M643 344v-33q-232 -209 -329 -278.5t-162 -69.5q-57 0 -86 34t-29 95q0 70 108 231.5t270.5 346.5t335.5 358t322 287.5t211 114.5q30 0 50.5 -18.5t21.5 -51.5q0 -87 -96 -214.5t-233.5 -245t-293 -215t-270.5 -132.5q-123 -140 -201.5 -235.5t-115 -150.5t-48.5 -82
t-12 -48t15 -35t34 -14t39.5 5t45 17t45.5 24t52 35t54 40.5t61.5 50.5t63.5 55t71.5 63t75.5 66zM1331 1356q0 49 -43 49q-65 0 -281 -215t-520 -604h5q126 48 276 147.5t273 211t206.5 225t83.5 186.5z" />
    <glyph glyph-name="m" unicode="m" horiz-adv-x="1441" 
d="M-152 0l531 606h135l-231 -246h4q181 131 295 194.5t186 63.5q43 0 69.5 -27t26.5 -75q0 -51 -28 -125l4 -4q182 137 262 184t137 47q44 0 76.5 -30.5t32.5 -87.5q0 -47 -35.5 -107.5t-86 -116t-101 -107t-86 -93t-35.5 -60.5q0 -12 8.5 -20t23.5 -8q50 0 159 81.5
t325 276.5v-29q-183 -171 -303.5 -262.5t-180.5 -91.5q-37 0 -59.5 23.5t-22.5 70.5q0 52 54 128.5t118 140t118 125t54 86.5q0 29 -19 43t-46 14q-65 0 -209 -100t-292.5 -237t-248.5 -257h-139l332 350q88 92 113.5 129.5t25.5 69.5q0 45 -55 45q-81 0 -247 -105
t-280 -206q-72 -65 -150.5 -149t-111.5 -134h-123z" />
    <glyph glyph-name="n" unicode="n" horiz-adv-x="909" 
d="M-152 0l562 606h127l-179 -192l4 -4q91 81 189 144.5t160 63.5q54 0 85 -32t31 -86q0 -47 -35.5 -107.5t-86 -116t-101 -107t-86 -93t-35.5 -60.5q0 -12 9 -20t24 -8q50 0 158 81t325 277v-29q-184 -172 -303.5 -263t-179.5 -91q-37 0 -59.5 23.5t-22.5 70.5
q0 52 54 128.5t118 140t118 125t54 86.5t-17.5 41t-47.5 16q-90 0 -302 -176t-419 -418h-144z" />
    <glyph glyph-name="o" unicode="o" horiz-adv-x="835" 
d="M909 365l13 -19q-86 -72 -160 -72q-59 0 -107 41q-145 -180 -271.5 -266t-244.5 -86q-49 0 -88 35.5t-39 89.5q0 72 63 170.5t153 182.5t195 143t183 59q67 0 86 -45q11 8 25 8q41 0 41 -61q0 -49 -29 -112t-61 -97q43 -37 94 -37q29 0 72 18.5t75 47.5zM610 442
q0 39 17 79t41 61q-3 15 -16.5 25.5t-33.5 10.5q-22 0 -49 -13.5t-65 -47t-71 -65t-88 -93t-92.5 -105t-107.5 -124.5q-59 -69 -59 -121q0 -25 19 -43t57 -18q102 0 234 99.5t239 248.5q-25 45 -25 106z" />
    <glyph glyph-name="p" unicode="p" horiz-adv-x="909" 
d="M-618 -532l1007 1138h143l-172 -188l5 -4q247 204 348 204q50 0 80 -32t30 -86q0 -47 -35.5 -107.5t-86 -116t-101 -107t-86 -93t-35.5 -60.5q0 -12 9 -20t24 -8q50 0 158 81t325 277v-29q-184 -172 -303.5 -263t-179.5 -91q-37 0 -59.5 23.5t-22.5 70.5q0 52 54 128.5
t118 140t118 125t54 86.5t-17.5 41t-47.5 16q-40 0 -136 -60.5t-160.5 -111t-117.5 -94.5q-87 -73 -337 -348.5t-445 -511.5h-131z" />
    <glyph glyph-name="q" unicode="q" 
d="M-193 -532l531 542l-6 4q-74 -51 -180 -51q-64 0 -91.5 34.5t-27.5 100.5q0 55 39 126t106 139t148 126t174.5 93.5t175.5 35.5q53 0 81.5 -30.5t28.5 -67.5q0 -26 -10 -49l4 -4l121 139h139l-585 -608l4 -4q251 69 614 338v-25q-141 -112 -325 -215.5t-330 -132.5
l-467 -491h-144zM762 520q0 33 -26 53.5t-66 20.5q-78 0 -191.5 -95t-281.5 -286q-52 -59 -78.5 -95.5t-31.5 -49.5t-5 -27q0 -53 98 -53q117 0 236 116q161 156 239.5 243.5t92.5 115t14 57.5z" />
    <glyph glyph-name="r" unicode="r" horiz-adv-x="606" 
d="M-152 0l533 606h139l-262 -287l4 -4q76 64 254 119q10 63 69 123.5t101 60.5q49 0 49 -38q0 -51 -68.5 -99.5t-127.5 -64.5q0 -48 17 -78.5t52 -30.5q53 0 84 25l10 -17q-15 -11 -41 -21.5t-47 -10.5q-47 0 -73.5 34t-26.5 93q-125 -31 -223 -96.5t-189 -170.5l-122 -143
h-132z" />
    <glyph glyph-name="s" unicode="s" horiz-adv-x="684" 
d="M291 410l-12 12l172 160q-13 26 -13 49q0 50 27.5 94.5t75.5 44.5q12 0 22 -12.5t10 -24.5q0 -11 -3.5 -23t-11 -25t-13.5 -23t-18 -24.5t-18 -21.5t-19 -21t-15 -17q5 -6 20.5 -27.5t21 -29.5t17.5 -26.5t16.5 -30t11 -29t9 -34.5t2.5 -36q0 -36 -17 -76.5t-34.5 -66
t-46.5 -62.5q101 18 165.5 53.5t129.5 114.5l12 -13q-71 -85 -142 -126t-194 -54q-98 -82 -184.5 -127t-171.5 -45q-76 0 -111.5 38.5t-35.5 104.5q0 72 58 155t122 83q26 0 45.5 -20t19.5 -50q0 -32 -22.5 -54.5t-46.5 -22.5q-30 0 -48 20.5t-18 52.5h-4
q-35 -26 -58.5 -71.5t-23.5 -96.5q0 -48 25 -81t69 -33q48 0 157.5 88t201.5 204t92 183q0 47 -49 102z" />
    <glyph glyph-name="t" unicode="t" horiz-adv-x="532" 
d="M549 750l260 282h135l-260 -282h127l-16 -25h-133l-506 -549q-101 -110 -114 -130q-13 -19 -13 -30q0 -14 14 -21t31 -7q122 0 520 356l12 -16q-215 -192 -343 -278.5t-197 -86.5q-35 0 -54.5 24.5t-19.5 61.5q0 47 33.5 107t117.5 151l383 418h-133l21 25h135z" />
    <glyph glyph-name="u" unicode="u" 
d="M88 254l299 352h135l-379 -428q-80 -92 -80 -137q0 -25 25 -39t68 -14q166 0 483 348l244 270h131l-369 -411q-76 -84 -97.5 -113t-21.5 -53q0 -41 41 -41q54 0 193 97t303 249l14 -19q-213 -183 -331.5 -267.5t-184.5 -84.5q-40 0 -63.5 29.5t-20.5 73.5q0 54 25 90
l-4 4q-115 -102 -199 -149.5t-166 -47.5q-51 0 -91 33t-40 76q0 79 86 182z" />
    <glyph glyph-name="v" unicode="v" horiz-adv-x="835" 
d="M111 279l290 327h131l-393 -434q-86 -95 -86 -127q0 -27 27.5 -42t71.5 -15q54 0 109.5 17t102.5 42.5t107.5 73t106.5 88.5t118 110q-24 33 -24 80q0 48 43.5 133.5t91.5 85.5q23 0 30 -11.5t7 -33.5q0 -68 -117 -247q31 -31 76 -31q82 0 135 53v-24q-22 -22 -60.5 -38
t-74.5 -16q-53 0 -90 33q-82 -81 -145 -136t-135.5 -105t-142.5 -74.5t-140 -24.5q-72 0 -109 34t-37 77q0 85 107 205z" />
    <glyph glyph-name="w" unicode="w" horiz-adv-x="1290" 
d="M70 227l323 379h139l-403 -463q-40 -46 -51.5 -66.5t-11.5 -43.5q0 -20 18 -32.5t53 -12.5q51 0 116.5 31t121.5 73t117.5 98.5t96 93t66.5 72.5l222 250h135l-377 -430q-58 -67 -77 -93.5t-19 -49.5q0 -45 79 -45q98 0 225 76t308 255q-25 35 -25 80q0 48 44 133.5
t92 85.5q22 0 29 -11t7 -34q0 -70 -116 -247q31 -31 75 -31q83 0 136 53v-24q-22 -22 -61 -38t-75 -16q-53 0 -90 33q-150 -158 -298 -249t-253 -91q-139 0 -139 111q0 52 23 94l-4 4q-98 -104 -194.5 -156.5t-166.5 -52.5q-55 0 -93 29t-38 82q0 75 66 153z" />
    <glyph glyph-name="x" unicode="x" horiz-adv-x="909" 
d="M250 438l-12 13q193 163 311 163q43 0 70.5 -28.5t27.5 -61.5q0 -51 -16 -90l4 -4q75 93 130.5 138.5t104.5 45.5q45 0 75 -24t30 -60q0 -31 -17.5 -53t-48.5 -22q-34 0 -51.5 18t-17.5 47q0 42 45 82q-40 0 -91 -37t-117.5 -118t-98 -122t-96.5 -134q-3 -3 -4 -5t-3 -5
t-4 -5q-65 -93 -65 -133q0 -25 20.5 -40t56.5 -15q49 0 92 16t151.5 94t287.5 234l18 -15q-185 -159 -290 -236.5t-153 -97.5t-100 -20q-70 0 -107.5 36t-37.5 87t21 86l-5 4q-100 -126 -158.5 -169.5t-123.5 -43.5q-49 0 -78 33t-29 86q0 50 27.5 84.5t67.5 34.5
q32 0 52.5 -21t20.5 -57q0 -30 -21 -50t-52 -20q-37 0 -70 33q0 -98 90 -98q77 0 164 96q132 142 293 375q43 62 43 90q0 20 -16.5 30.5t-37.5 10.5q-29 0 -65.5 -14.5t-85 -46t-67.5 -44.5t-64 -47z" />
    <glyph glyph-name="y" unicode="y" horiz-adv-x="909" 
d="M98 307l262 299h144l-361 -385q-56 -61 -77 -93.5t-21 -59.5q0 -43 66 -43q116 0 283 136t433 445h136l-521 -575l4 -4q80 27 156.5 64.5t157 91t123.5 84.5t125 93l12 -12q-140 -113 -304 -214t-298 -134q-545 -606 -836 -606q-55 0 -87 29.5t-32 76.5q0 212 789 467
l166 180l-4 5q-186 -152 -308 -152q-50 0 -80 27t-30 73q0 92 102 207zM-512 -504q0 -32 27 -55t71 -23q193 0 641 516l-4 5q-89 -30 -156 -55t-160.5 -62.5t-160.5 -73.5t-129.5 -77.5t-95.5 -86t-33 -88.5z" />
    <glyph glyph-name="z" unicode="z" horiz-adv-x="835" 
d="M934 332l12 -13q-92 -101 -158.5 -168.5t-146 -127.5t-125.5 -60q-76 0 -211 88q-108 -88 -217 -88q-58 0 -87.5 27.5t-29.5 72.5q0 64 56 111t120 47q85 0 209 -90q93 100 207 242l-2 -2l-4 4q-43 -19 -84 -19q-37 0 -58.5 18t-21.5 44q0 27 35 77.5t35 63.5
q0 10 -5.5 16.5t-13.5 6.5q-23 0 -182 -119l-12 12q123 93 166 116q50 27 86 27q27 0 49 -18.5t22 -38.5q0 -29 -47 -77t-47 -74q0 -29 37 -29q17 0 38.5 7t31.5 18q71 81 105 117t74.5 65.5t70.5 29.5q41 0 41 -40q0 -41 -65.5 -88.5t-221.5 -112.5q-105 -143 -217 -258
q146 -94 209 -94q45 0 127 75t225 232zM852 569q0 25 -25 25q-31 0 -68 -32.5t-143 -147.5l5 -4q231 108 231 159zM-4 68q0 -80 96 -80q102 0 197 75q-132 97 -203 97q-42 0 -66 -29t-24 -63z" />
    <glyph glyph-name="braceleft" unicode="{" horiz-adv-x="835" 
d="M72 10l237 314q46 60 61 94.5t15 68.5q0 88 -102 113q78 13 133.5 30t94.5 35t78.5 55t67 69.5t78.5 99.5l264 348q50 67 85 104t83.5 68.5t108.5 44t145 12.5l-18 -24q-44 0 -80 -9.5t-60.5 -21.5t-54 -41.5t-47 -51t-53.5 -69.5l-322 -424q-42 -55 -73.5 -88t-82.5 -67
t-120 -50.5t-162 -19.5v-4q56 -7 89.5 -40.5t33.5 -72.5q0 -36 -22.5 -82.5t-81.5 -126.5l-265 -350q-69 -92 -69 -131q0 -15 16.5 -25t48.5 -10h97l-19 -24h-125q-56 0 -80 14.5t-24 44.5q0 29 28 77.5t97 139.5z" />
    <glyph glyph-name="bar" unicode="|" horiz-adv-x="909" 
d="M647 -512v2048h49v-2048h-49z" />
    <glyph glyph-name="braceright" unicode="}" horiz-adv-x="835" 
d="M1061 1190l-238 -313q-46 -60 -60.5 -94.5t-14.5 -69.5q0 -88 102 -113q-78 -13 -133.5 -30t-95 -35t-78.5 -54.5t-67.5 -70t-78.5 -99.5l-264 -348q-50 -67 -85 -104t-83.5 -68.5t-108.5 -44t-145 -12.5l19 24q44 0 80 9.5t60.5 21.5t54 41.5t47 51t53.5 69.5l321 424
q42 55 73.5 88t82.5 67t120 50.5t162 19.5v4q-56 7 -89 40.5t-33 72.5q0 36 22.5 82.5t81.5 126.5l264 350q70 93 70 131q0 15 -17 25t-49 10h-96l18 24h125q105 0 105 -59q0 -29 -28 -77.5t-97 -139.5z" />
    <glyph glyph-name="asciitilde" unicode="~" horiz-adv-x="1363" 
d="M367 426l-41 12q40 70 110 123t139 53q86 0 236 -71q48 -23 77.5 -36t71 -24.5t76.5 -11.5q47 0 103.5 38t101.5 101l41 -12q-40 -70 -110.5 -123t-139.5 -53q-83 0 -235 72q-146 71 -226 71q-47 0 -103 -37.5t-101 -101.5z" />
    <glyph glyph-name="uni00A0" unicode="&#xa0;" horiz-adv-x="454" 
 />
    <glyph glyph-name="exclamdown" unicode="&#xa1;" horiz-adv-x="757" 
d="M709 582q0 -33 -27.5 -59.5t-58.5 -26.5q-26 0 -44 16t-18 45q0 33 27.5 59.5t58.5 26.5q26 0 44 -16t18 -45zM-270 -500h-168q209 218 315.5 327t285 284t329.5 311l16 -16q-130 -132 -281 -305t-235.5 -277t-261.5 -324z" />
    <glyph glyph-name="cent" unicode="&#xa2;" horiz-adv-x="835" 
d="M168 4l446 512q0 27 17.5 46.5t48.5 19.5q25 0 43 -15l4 4q-19 47 -84 47q-50 0 -141.5 -78.5t-174.5 -177.5t-145.5 -189.5t-62.5 -115.5q0 -39 49 -53zM25 -156l122 140q-90 27 -90 135q-4 93 96.5 218.5t239 215.5t238.5 90q47 0 78 -20l73 86l13 -13l-74 -82
q41 -33 41 -90q0 -33 -23 -49t-55 -16q-48 0 -66 37l-434 -496h25q59 0 139.5 39.5t158 100t141 119t110.5 110.5v-33q-42 -47 -104 -104t-140 -117t-162 -100t-147 -40q-26 0 -41 5l-127 -148z" />
    <glyph glyph-name="sterling" unicode="&#xa3;" horiz-adv-x="1970" 
d="M-8 78q0 -78 168 -78q169 0 336 94q-168 62 -239 77q-60 13 -112 13q-70 0 -111.5 -27.5t-41.5 -78.5zM592 807h506q59 92 125 177.5t164.5 187t200 175t230 123.5t255.5 50q66 0 124.5 -15t108 -45.5t78.5 -83.5t29 -123q0 -140 -107 -254t-246 -114q-114 0 -181 63.5
t-73 177.5h25q3 -101 63.5 -159t161.5 -58q93 0 164.5 49.5t107 127t35.5 167.5q0 127 -80.5 184.5t-214.5 57.5q-57 0 -116.5 -16.5t-110 -40t-108 -67t-99 -79.5t-95.5 -96t-86 -97.5t-81.5 -104t-70.5 -96t-64 -91.5h469l-16 -25h-471q-348 -516 -670 -684
q206 -98 389 -98q76 0 188 39.5t217 100t179.5 144.5t74.5 162q0 71 -43.5 103.5t-111.5 32.5q-82 0 -152.5 -48t-138.5 -124l-8 16q55 70 135.5 125t159.5 55q184 0 184 -168q0 -94 -47.5 -173.5t-121.5 -131.5t-167 -89t-182.5 -53t-169.5 -16q-110 0 -205.5 28.5
t-204.5 78.5q-172 -107 -366 -107q-108 0 -149.5 30t-41.5 81q0 55 45.5 89t126.5 34q154 0 381 -98q54 45 106 95.5t103.5 110.5t91 108t92.5 121t82.5 114.5t85.5 121.5h-506z" />
    <glyph glyph-name="currency" unicode="&#xa4;" horiz-adv-x="1060" 
d="M238 158l100 100q-117 137 -117 305t117 305l-100 101l38 39l101 -101q143 117 305 117q168 0 305 -117l100 101l39 -39l-100 -101q117 -143 117 -305q0 -168 -117 -305l100 -100l-39 -39l-100 102q-136 -119 -305 -119q-162 0 -305 117l-101 -100zM270 563
q0 -170 121 -290.5t291 -120.5t291 120.5t121 290.5t-121 291t-291 121t-291 -121t-121 -291z" />
    <glyph glyph-name="yen" unicode="&#xa5;" horiz-adv-x="1638" 
d="M954 76l88 98h-532l25 25h530l285 307l-4 4q-257 -168 -435 -168q-91 0 -140.5 38t-49.5 99q0 91 129 217l455 445q58 58 79 94.5t21 83.5q0 89 -66.5 132.5t-167.5 43.5q-107 0 -220 -46.5t-196 -115t-136.5 -146.5t-53.5 -140q0 -56 38.5 -87.5t98.5 -31.5q72 0 149 52
t129 136t52 168q0 36 -12 80h20q17 -47 17 -102q0 -85 -34.5 -156t-88.5 -113.5t-114.5 -66t-117.5 -23.5q-75 0 -118 39t-43 111q0 68 55 150.5t141 152.5t203.5 117t230.5 47q140 0 224 -65t84 -179q0 -66 -39.5 -127.5t-112.5 -130.5l-450 -432q-82 -79 -82 -142
q0 -32 30 -54.5t86 -22.5q112 0 264 75t273 179l731 809h143l-1130 -1231h324l-25 -25h-322l-90 -98h324l-25 -25h-321l-82 -82q-121 -123 -201.5 -195.5t-165.5 -128.5t-163 -78t-171 -22q-95 0 -156 53.5t-61 133.5q0 57 31.5 94t75.5 37q38 0 64 -23.5t26 -62.5
t-24.5 -62.5t-61.5 -23.5q-55 0 -82 53h-4q0 -77 54 -125.5t138 -48.5q107 0 227 84.5t349 314.5l82 82h-533l25 25h530z" />
    <glyph glyph-name="brokenbar" unicode="&#xa6;" horiz-adv-x="909" 
d="M647 -358v716h49v-716h-49zM647 666v716h49v-716h-49z" />
    <glyph glyph-name="section" unicode="&#xa7;" horiz-adv-x="1363" 
d="M590 815q0 -55 55 -182.5t119.5 -266t79.5 -198.5q58 -8 90 -8q97 0 165 69t68 172q0 73 -31.5 165t-70.5 166t-81.5 161.5t-57.5 142.5q-29 8 -95 8q-109 0 -175 -60.5t-66 -168.5zM492 766q0 130 103.5 216.5t235.5 86.5q33 0 91 -8q-17 70 -17 98q0 77 29.5 137.5
t81 96.5t116 54.5t138.5 18.5q61 0 114 -14t97.5 -43t70 -80t25.5 -119q0 -42 -23.5 -67t-60.5 -25q-42 0 -65 23t-23 59q0 38 21 64t57 26q40 0 61 -24l4 4q-32 94 -102 133t-180 39q-114 0 -188 -59t-74 -171q0 -75 27 -156.5t65.5 -153t77 -142.5t65.5 -150t27 -151
q0 -67 -33.5 -129.5t-83.5 -103.5t-104.5 -66t-98.5 -25q-69 0 -94 4q8 -50 8 -73q0 -102 -60.5 -183.5t-152.5 -123.5t-192 -42q-124 0 -224 73t-100 194q0 44 27 75t65 31t61 -24.5t23 -61.5q0 -40 -21.5 -64t-58.5 -24q-28 0 -46 14t-21 37h-4q0 -91 93.5 -158t209.5 -67
q122 0 212.5 75.5t90.5 194.5q0 64 -42 172t-93 205t-93 205t-42 172z" />
    <glyph glyph-name="dieresis" unicode="&#xa8;" horiz-adv-x="532" 
d="M360 942q0 30 21 52t49 22q26 0 39.5 -20.5t13.5 -53.5q0 -31 -20.5 -52.5t-48.5 -21.5q-27 0 -40.5 20.5t-13.5 53.5zM639 942q0 30 21 52t49 22q26 0 39.5 -20.5t13.5 -53.5q0 -30 -21 -52t-49 -22q-26 0 -39.5 20.5t-13.5 53.5z" />
    <glyph glyph-name="copyright" unicode="&#xa9;" horiz-adv-x="1843" 
d="M1511 524h29l-33 -147q0 -17 -11 -25.5t-34 -15.5q-109 -37 -248 -37q-77 0 -145 14t-129 47t-105 81.5t-70 122t-26 165.5q0 71 31.5 143t90 134.5t154.5 101.5t212 39q145 0 235 -37q48 -20 54 -45v-152h-50q-8 185 -247 185q-165 0 -248.5 -97.5t-83.5 -263.5
q-3 -181 84 -285t264 -104q207 0 276 176zM416 715q0 153 59.5 292.5t159.5 239.5t239.5 159.5t292.5 59.5t292.5 -59.5t240 -159.5t160 -239.5t59.5 -292.5t-59.5 -292.5t-160 -240t-240 -160t-292.5 -59.5t-292.5 59.5t-239.5 160t-159.5 240t-59.5 292.5zM465 715
q0 -190 94 -352t256 -256.5t352 -94.5t352 94.5t256.5 256.5t94.5 352t-94.5 352t-256.5 256t-352 94q-114 0 -221 -35.5t-193.5 -100.5t-151.5 -151.5t-100.5 -193.5t-35.5 -221z" />
    <glyph glyph-name="ordfeminine" unicode="&#xaa;" horiz-adv-x="641" 
d="M971 1135h98l-295 -304q-29 -29 -29 -45t33 -16q50 0 175.5 83t156.5 122l16 -21q-76 -66 -188 -137.5t-176 -71.5q-29 0 -47.5 15t-18.5 35q0 17 21 49h-4q-45 -37 -101 -68t-100 -31q-49 0 -71.5 22t-22.5 56q0 64 76.5 143t174 132t158.5 53q41 0 63.5 -14.5
t22.5 -36.5q0 -15 -4 -27h4zM467 803q0 -33 49 -33q52 0 143.5 63t160.5 137t69 107q0 49 -58 49q-40 0 -129.5 -68t-162 -146.5t-72.5 -108.5z" />
    <glyph glyph-name="guillemotleft" unicode="&#xab;" horiz-adv-x="835" 
d="M449 0h-17q29 77 29 188t-21 181q206 75 351 229l10 -8q-94 -149 -279 -271q0 -69 -20.5 -158t-52.5 -161zM207 0h-17q29 77 29 188q0 115 -20 181q205 74 350 229l10 -8q-94 -150 -278 -271q0 -69 -21 -157.5t-53 -161.5z" />
    <glyph glyph-name="logicalnot" unicode="&#xac;" horiz-adv-x="1363" 
d="M1274 221v471h-987v49h1036v-520h-49z" />
    <glyph glyph-name="uni00AD" unicode="&#xad;" 
d="M279 356l24 66q53 -8 258 -8q127 0 283 8l-25 -66q-119 9 -258 9q-107 0 -282 -9z" />
    <glyph glyph-name="registered" unicode="&#xae;" horiz-adv-x="1843" 
d="M930 414v626q0 54 -62 54h-45v36h332q131 0 211 -54t80 -163q0 -78 -45 -139.5t-125 -85.5l203 -270q53 -71 94 -78v-16h-117q-14 0 -25 6.5t-40 36.5t-82.5 105t-137.5 200h-131v-258q0 -54 62 -54h45v-36h-324v36h45q62 0 62 54zM1040 1094v-385h115q168 0 168 200
q0 185 -176 185h-107zM416 715q0 153 59.5 292.5t159.5 239.5t239.5 159.5t292.5 59.5t292.5 -59.5t240 -159.5t160 -239.5t59.5 -292.5t-59.5 -292.5t-160 -240t-240 -160t-292.5 -59.5t-292.5 59.5t-239.5 160t-159.5 240t-59.5 292.5zM465 715q0 -190 94 -352t256 -256.5
t352 -94.5t352 94.5t256.5 256.5t94.5 352t-94.5 352t-256.5 256t-352 94q-114 0 -221 -35.5t-193.5 -100.5t-151.5 -151.5t-100.5 -193.5t-35.5 -221z" />
    <glyph glyph-name="macron" unicode="&#xaf;" horiz-adv-x="532" 
d="M283 901l24 25h443l-25 -25h-442z" />
    <glyph glyph-name="degree" unicode="&#xb0;" horiz-adv-x="819" 
d="M549 918q0 120 85.5 205t205.5 85t205 -85t85 -205t-85 -205.5t-205 -85.5t-205.5 85.5t-85.5 205.5zM598 918q0 -100 71 -171t171 -71t170.5 71t70.5 171t-70.5 170.5t-170.5 70.5t-171 -70.5t-71 -170.5z" />
    <glyph glyph-name="plusminus" unicode="&#xb1;" horiz-adv-x="1363" 
d="M780 184v402h-493v49h493v401h49v-401h494v-49h-494v-402h-49zM287 0v49h1036v-49h-1036z" />
    <glyph glyph-name="two.superior" unicode="&#xb2;" horiz-adv-x="641" 
d="M705 561l12 -12q-30 -40 -85 -73.5t-116 -33.5q-12 0 -28.5 3t-28.5 6t-34.5 9t-33.5 9q-87 27 -133 27q-61 0 -115 -54l-8 17q30 37 59.5 64t78.5 58.5t123 62.5t177 63q98 30 176.5 78.5t123 98t67.5 93.5t23 76q0 34 -23 53.5t-68 19.5q-77 0 -159 -66.5t-82 -119.5
q0 -25 17 -42t52 -17q44 0 88 50t68 105l12 -8q-16 -38 -36.5 -73t-57.5 -67t-76 -32t-65.5 25.5t-26.5 64.5q0 50 44.5 99t106.5 77.5t115 28.5q69 0 116.5 -35t47.5 -92q0 -100 -108.5 -190.5t-315.5 -145.5q-281 -74 -387 -172l4 -4q52 33 107 33q34 0 92 -15
q68 -14 96 -14q131 0 181 45z" />
    <glyph glyph-name="three.superior" unicode="&#xb3;" horiz-adv-x="641" 
d="M588 803v12q107 3 157.5 21.5t96.5 60.5q45 42 69.5 88.5t24.5 85.5q0 55 -78 55q-60 0 -140.5 -68t-80.5 -112q0 -18 19 -29.5t42 -11.5q34 0 74.5 32t61.5 67l16 -13q-16 -36 -65.5 -73t-90.5 -37q-37 0 -59.5 20.5t-22.5 52.5q0 73 82.5 135t171.5 62q63 0 103.5 -27
t40.5 -80q0 -94 -104.5 -162.5t-243.5 -74.5v-4q73 -13 73 -86q0 -39 -27.5 -86t-74 -89.5t-116.5 -71t-146 -28.5q-78 0 -129.5 30.5t-51.5 96.5q0 51 30 87t65 36q53 0 53 -57q0 -66 -49 -66q-23 0 -36 19t-13 43q-25 -19 -25 -62q0 -48 40 -75t103 -27q43 0 102.5 36.5
t108 83.5t83 92t34.5 62q0 28 -29 43t-69 19z" />
    <glyph glyph-name="acute" unicode="&#xb4;" horiz-adv-x="532" 
d="M614 1053h111q-40 -78 -111 -142t-151 -104l-8 12q126 104 159 234z" />
    <glyph glyph-name="mu" unicode="&#xb5;" 
d="M-621 -532l1008 1138h135l-379 -428q-80 -92 -80 -137q0 -25 25 -39t68 -14q166 0 483 348l244 270h131l-369 -411q-76 -84 -97.5 -113t-21.5 -53q0 -41 41 -41q54 0 193 97t303 249l14 -19q-213 -183 -331.5 -267.5t-184.5 -84.5q-40 0 -63.5 29.5t-20.5 73.5
q0 54 25 90l-4 4q-115 -102 -199 -149.5t-166 -47.5q-42 0 -73.5 19.5t-32.5 56.5l-516 -571h-132z" />
    <glyph glyph-name="paragraph" unicode="&#xb6;" horiz-adv-x="1228" 
d="M991 637l578 768q-81 0 -178.5 -35.5t-189.5 -99t-168.5 -142t-123.5 -173.5t-47 -185q0 -64 35 -98.5t94 -34.5zM549 -246l1243 1651h-125l-1241 -1651h-268l20 25h53q72 0 112.5 28.5t109.5 120.5l514 684q-114 0 -182 61.5t-68 133.5q0 107 82 222t205 201.5
t273.5 143t281.5 56.5h536l-18 -25h-64q-123 0 -215 -123l-1020 -1356q-69 -91 -69 -116q0 -31 49 -31h71l-20 -25h-260z" />
    <glyph glyph-name="periodcentered" unicode="&#xb7;" horiz-adv-x="454" 
d="M348 586q0 33 27.5 59.5t58.5 26.5q26 0 44 -16.5t18 -45.5q0 -33 -27.5 -59.5t-58.5 -26.5q-26 0 -44 16.5t-18 45.5z" />
    <glyph glyph-name="cedilla" unicode="&#xb8;" horiz-adv-x="532" 
d="M-168 -266l-12 12q136 31 196 82l-4 4q-8 -4 -24 -4q-21 0 -33 13.5t-12 35.5q0 31 19.5 52.5t49.5 21.5q54 0 54 -57q0 -112 -234 -160z" />
    <glyph glyph-name="one.superior" unicode="&#xb9;" horiz-adv-x="544" 
d="M266 442l611 586h-5q-211 -123 -434 -209l-12 29q144 53 320 146t217 157h127l-693 -709h-131z" />
    <glyph glyph-name="ordmasculine" unicode="&#xba;" horiz-adv-x="542" 
d="M932 1096q0 -30 -18 -68t-33 -53q15 -21 53 -21q48 0 96 39l8 -20q-60 -43 -108 -43q-33 0 -70 22q-181 -207 -332 -207q-51 0 -80.5 20.5t-29.5 57.5q0 59 74 138.5t170 134.5t157 55q32 0 66 -27q9 6 20 6q12 0 19.5 -9.5t7.5 -24.5zM532 770q66 0 151.5 55t154.5 142
q-17 25 -17 59q0 47 35 86q-14 14 -31 14q-34 0 -122.5 -78t-192.5 -190q-31 -34 -31 -61q0 -9 14.5 -18t38.5 -9z" />
    <glyph glyph-name="guillemotright" unicode="&#xbb;" horiz-adv-x="835" 
d="M387 598h16q-28 -74 -28 -188q0 -115 20 -181q-205 -74 -350 -229l-10 8q94 150 278 271q0 69 21 157.5t53 161.5zM629 598h16q-29 -77 -29 -188t21 -181q-205 -74 -350 -229l-11 8q94 149 279 271q0 69 21 157.5t53 161.5z" />
    <glyph glyph-name="onequarter" unicode="&#xbc;" horiz-adv-x="1589" 
d="M1006 0l217 209h-349l17 49l835 451h107l-473 -476h113l-17 -24h-121l-207 -209h-122zM1247 233l443 422v4l-787 -421v-5h344zM268 -57l1233 1241h49l-1233 -1241h-49zM266 442l611 586h-5q-211 -123 -434 -209l-12 29q144 53 320 146t217 157h127l-693 -709h-131z" />
    <glyph glyph-name="onehalf" unicode="&#xbd;" horiz-adv-x="1589" 
d="M268 -57l1233 1241h49l-1233 -1241h-49zM266 442l611 586h-5q-211 -123 -434 -209l-12 29q144 53 320 146t217 157h127l-693 -709h-131zM1315 90l12 -12q-30 -40 -85 -73.5t-116 -33.5q-12 0 -28.5 3t-28.5 6t-34.5 9t-33.5 9q-87 27 -133 27q-60 0 -114 -54l-9 17
q40 49 82.5 84t132 78.5t224.5 85.5q98 30 176.5 78.5t122.5 98t67 93.5t23 76q0 73 -90 73q-77 0 -159.5 -66.5t-82.5 -119.5q0 -25 17.5 -42t52.5 -17q44 0 87.5 50t67.5 105l13 -8q-16 -38 -36.5 -73t-57.5 -67t-76 -32t-65.5 25.5t-26.5 64.5q0 50 44.5 99t106.5 77.5
t115 28.5q69 0 116.5 -35t47.5 -92q0 -100 -108.5 -190.5t-315.5 -145.5q-281 -74 -387 -172l4 -4q52 33 106 33q34 0 92 -15q68 -14 97 -14q130 0 180 45z" />
    <glyph glyph-name="threequarters" unicode="&#xbe;" horiz-adv-x="1589" 
d="M1006 0l217 209h-349l17 49l835 451h107l-473 -476h113l-17 -24h-121l-207 -209h-122zM1247 233l443 422v4l-787 -421v-5h344zM268 -57l1233 1241h49l-1233 -1241h-49zM588 803v12q107 3 157.5 21.5t96.5 60.5q45 42 69.5 88.5t24.5 85.5q0 55 -78 55q-60 0 -140.5 -68
t-80.5 -112q0 -18 19 -29.5t42 -11.5q34 0 74.5 32t61.5 67l16 -13q-16 -36 -65.5 -73t-90.5 -37q-37 0 -59.5 20.5t-22.5 52.5q0 73 82.5 135t171.5 62q63 0 103.5 -27t40.5 -80q0 -94 -104.5 -162.5t-243.5 -74.5v-4q73 -13 73 -86q0 -39 -27.5 -86t-74 -89.5t-116.5 -71
t-146 -28.5q-78 0 -129.5 30.5t-51.5 96.5q0 51 30 87t65 36q53 0 53 -57q0 -66 -49 -66q-23 0 -36 19t-13 43q-25 -19 -25 -62q0 -48 40 -75t103 -27q43 0 102.5 36.5t108 83.5t83 92t34.5 62q0 28 -29 43t-69 19z" />
    <glyph glyph-name="questiondown" unicode="&#xbf;" 
d="M680 406l16 -17q-53 -86 -143.5 -145.5t-237.5 -124.5q-95 -42 -178 -111.5t-135.5 -141t-82.5 -138.5t-30 -113q0 -123 164 -123q56 0 124 38.5t121.5 92t90.5 113t37 100.5q0 50 -26 78.5t-72 28.5q-87 0 -163.5 -89t-82.5 -190l-25 17q9 115 97 200.5t182 85.5
q52 0 83.5 -37t31.5 -94q0 -78 -41 -148.5t-102.5 -117.5t-131.5 -74.5t-131 -27.5q-116 0 -172.5 59.5t-56.5 165.5q0 64 30 132.5t87.5 135.5t154.5 123t219 86q128 33 228.5 98t144.5 138zM885 582q0 -33 -27.5 -59.5t-58.5 -26.5q-26 0 -44 16t-18 45q0 33 27.5 59.5
t58.5 26.5q26 0 44 -16t18 -45z" />
    <glyph glyph-name="Agrave" unicode="&#xc0;" horiz-adv-x="2125" 
d="M836 659l12 25h299q127 141 214.5 235.5t182 191.5t161.5 156t134 108t120.5 70t100.5 21q60 0 85.5 -25.5t25.5 -76.5q0 -64 -66 -167.5t-144 -190.5t-171 -188t-119 -134h205l-12 -25h-213l-45 -50q-44 -50 -64 -74.5t-66 -79t-71.5 -91.5t-56 -83t-44.5 -81.5
t-14 -60.5q0 -151 176 -151q98 0 213.5 63t205.5 151.5t151 185t61 161.5q0 46 -24.5 62t-69.5 16q-86 0 -199.5 -101.5t-161.5 -197.5h-20q28 64 89 137.5t144 129.5t152 56q115 0 115 -102q0 -87 -44 -176.5t-116 -161t-158.5 -128.5t-175.5 -88.5t-162 -31.5
q-225 0 -225 254q0 69 54 160.5t216 281.5h-348q-73 -87 -125.5 -147.5t-126 -139t-132 -132t-131 -110t-135.5 -90.5t-133.5 -55.5t-137.5 -21.5q-100 0 -165 42t-65 126q0 42 24.5 72t65.5 30q37 0 59.5 -24t22.5 -66q0 -33 -20 -57.5t-45 -24.5q-37 0 -37 -20
q0 -9 22 -21t64.5 -22t89.5 -10q68 0 141.5 26.5t149.5 78.5t145 110t149.5 142.5t140.5 152.5t138 161h-286zM1184 684h344q105 129 266 300.5t244.5 268t83.5 136.5q0 53 -74 53q-107 0 -306 -180.5t-558 -577.5zM1972 1872h107q22 -148 102 -234l-12 -12
q-153 103 -197 246z" />
    <glyph glyph-name="Aacute" unicode="&#xc1;" horiz-adv-x="2125" 
d="M836 659l12 25h299q127 141 214.5 235.5t182 191.5t161.5 156t134 108t120.5 70t100.5 21q60 0 85.5 -25.5t25.5 -76.5q0 -64 -66 -167.5t-144 -190.5t-171 -188t-119 -134h205l-12 -25h-213l-45 -50q-44 -50 -64 -74.5t-66 -79t-71.5 -91.5t-56 -83t-44.5 -81.5
t-14 -60.5q0 -151 176 -151q98 0 213.5 63t205.5 151.5t151 185t61 161.5q0 46 -24.5 62t-69.5 16q-86 0 -199.5 -101.5t-161.5 -197.5h-20q28 64 89 137.5t144 129.5t152 56q115 0 115 -102q0 -87 -44 -176.5t-116 -161t-158.5 -128.5t-175.5 -88.5t-162 -31.5
q-225 0 -225 254q0 69 54 160.5t216 281.5h-348q-73 -87 -125.5 -147.5t-126 -139t-132 -132t-131 -110t-135.5 -90.5t-133.5 -55.5t-137.5 -21.5q-100 0 -165 42t-65 126q0 42 24.5 72t65.5 30q37 0 59.5 -24t22.5 -66q0 -33 -20 -57.5t-45 -24.5q-37 0 -37 -20
q0 -9 22 -21t64.5 -22t89.5 -10q68 0 141.5 26.5t149.5 78.5t145 110t149.5 142.5t140.5 152.5t138 161h-286zM1184 684h344q105 129 266 300.5t244.5 268t83.5 136.5q0 53 -74 53q-107 0 -306 -180.5t-558 -577.5zM2230 1872h111q-40 -78 -111 -142t-151 -104l-8 12
q126 104 159 234z" />
    <glyph glyph-name="Acircumflex" unicode="&#xc2;" horiz-adv-x="2125" 
d="M836 659l12 25h299q127 141 214.5 235.5t182 191.5t161.5 156t134 108t120.5 70t100.5 21q60 0 85.5 -25.5t25.5 -76.5q0 -64 -66 -167.5t-144 -190.5t-171 -188t-119 -134h205l-12 -25h-213l-45 -50q-44 -50 -64 -74.5t-66 -79t-71.5 -91.5t-56 -83t-44.5 -81.5
t-14 -60.5q0 -151 176 -151q98 0 213.5 63t205.5 151.5t151 185t61 161.5q0 46 -24.5 62t-69.5 16q-86 0 -199.5 -101.5t-161.5 -197.5h-20q28 64 89 137.5t144 129.5t152 56q115 0 115 -102q0 -87 -44 -176.5t-116 -161t-158.5 -128.5t-175.5 -88.5t-162 -31.5
q-225 0 -225 254q0 69 54 160.5t216 281.5h-348q-73 -87 -125.5 -147.5t-126 -139t-132 -132t-131 -110t-135.5 -90.5t-133.5 -55.5t-137.5 -21.5q-100 0 -165 42t-65 126q0 42 24.5 72t65.5 30q37 0 59.5 -24t22.5 -66q0 -33 -20 -57.5t-45 -24.5q-37 0 -37 -20
q0 -9 22 -21t64.5 -22t89.5 -10q68 0 141.5 26.5t149.5 78.5t145 110t149.5 142.5t140.5 152.5t138 161h-286zM1184 684h344q105 129 266 300.5t244.5 268t83.5 136.5q0 53 -74 53q-107 0 -306 -180.5t-558 -577.5zM2198 1872h102q-4 -7 -18 -29.5t-21 -35t-16.5 -32
t-14 -36t-4.5 -31.5q0 -49 33 -74l-8 -8q-32 12 -53 50.5t-21 80.5q-136 -99 -303 -131l-8 8q196 78 332 238z" />
    <glyph glyph-name="Atilde" unicode="&#xc3;" horiz-adv-x="2125" 
d="M836 659l12 25h299q127 141 214.5 235.5t182 191.5t161.5 156t134 108t120.5 70t100.5 21q60 0 85.5 -25.5t25.5 -76.5q0 -64 -66 -167.5t-144 -190.5t-171 -188t-119 -134h205l-12 -25h-213l-45 -50q-44 -50 -64 -74.5t-66 -79t-71.5 -91.5t-56 -83t-44.5 -81.5
t-14 -60.5q0 -151 176 -151q98 0 213.5 63t205.5 151.5t151 185t61 161.5q0 46 -24.5 62t-69.5 16q-86 0 -199.5 -101.5t-161.5 -197.5h-20q28 64 89 137.5t144 129.5t152 56q115 0 115 -102q0 -87 -44 -176.5t-116 -161t-158.5 -128.5t-175.5 -88.5t-162 -31.5
q-225 0 -225 254q0 69 54 160.5t216 281.5h-348q-73 -87 -125.5 -147.5t-126 -139t-132 -132t-131 -110t-135.5 -90.5t-133.5 -55.5t-137.5 -21.5q-100 0 -165 42t-65 126q0 42 24.5 72t65.5 30q37 0 59.5 -24t22.5 -66q0 -33 -20 -57.5t-45 -24.5q-37 0 -37 -20
q0 -9 22 -21t64.5 -22t89.5 -10q68 0 141.5 26.5t149.5 78.5t145 110t149.5 142.5t140.5 152.5t138 161h-286zM1184 684h344q105 129 266 300.5t244.5 268t83.5 136.5q0 53 -74 53q-107 0 -306 -180.5t-558 -577.5zM2402 1794l13 -8q-19 -24 -31.5 -38t-37.5 -37.5
t-51 -35.5t-52 -12q-8 0 -17 1.5t-16 3.5t-18.5 7t-17 7.5t-19.5 9t-19 8.5q-76 37 -119 37q-24 0 -59 -22t-47 -44l-13 4q27 37 49 62t59 49t73 24q37 0 119 -36.5t106 -36.5q25 0 52 16t46 41z" />
    <glyph glyph-name="Adieresis" unicode="&#xc4;" horiz-adv-x="2125" 
d="M836 659l12 25h299q127 141 214.5 235.5t182 191.5t161.5 156t134 108t120.5 70t100.5 21q60 0 85.5 -25.5t25.5 -76.5q0 -64 -66 -167.5t-144 -190.5t-171 -188t-119 -134h205l-12 -25h-213l-45 -50q-44 -50 -64 -74.5t-66 -79t-71.5 -91.5t-56 -83t-44.5 -81.5
t-14 -60.5q0 -151 176 -151q98 0 213.5 63t205.5 151.5t151 185t61 161.5q0 46 -24.5 62t-69.5 16q-86 0 -199.5 -101.5t-161.5 -197.5h-20q28 64 89 137.5t144 129.5t152 56q115 0 115 -102q0 -87 -44 -176.5t-116 -161t-158.5 -128.5t-175.5 -88.5t-162 -31.5
q-225 0 -225 254q0 69 54 160.5t216 281.5h-348q-73 -87 -125.5 -147.5t-126 -139t-132 -132t-131 -110t-135.5 -90.5t-133.5 -55.5t-137.5 -21.5q-100 0 -165 42t-65 126q0 42 24.5 72t65.5 30q37 0 59.5 -24t22.5 -66q0 -33 -20 -57.5t-45 -24.5q-37 0 -37 -20
q0 -9 22 -21t64.5 -22t89.5 -10q68 0 141.5 26.5t149.5 78.5t145 110t149.5 142.5t140.5 152.5t138 161h-286zM1184 684h344q105 129 266 300.5t244.5 268t83.5 136.5q0 53 -74 53q-107 0 -306 -180.5t-558 -577.5zM1976 1761q0 30 21 52t49 22q26 0 39.5 -20.5t13.5 -53.5
q0 -30 -20.5 -51.5t-48.5 -21.5q-27 0 -40.5 20.5t-13.5 52.5zM2255 1761q0 31 20.5 52.5t48.5 21.5q27 0 40.5 -20.5t13.5 -53.5q0 -30 -21 -51.5t-49 -21.5q-26 0 -39.5 20t-13.5 53z" />
    <glyph glyph-name="Aring" unicode="&#xc5;" horiz-adv-x="2125" 
d="M836 659l12 25h299q127 141 214.5 235.5t182 191.5t161.5 156t134 108t120.5 70t100.5 21q60 0 85.5 -25.5t25.5 -76.5q0 -64 -66 -167.5t-144 -190.5t-171 -188t-119 -134h205l-12 -25h-213l-45 -50q-44 -50 -64 -74.5t-66 -79t-71.5 -91.5t-56 -83t-44.5 -81.5
t-14 -60.5q0 -151 176 -151q98 0 213.5 63t205.5 151.5t151 185t61 161.5q0 46 -24.5 62t-69.5 16q-86 0 -199.5 -101.5t-161.5 -197.5h-20q28 64 89 137.5t144 129.5t152 56q115 0 115 -102q0 -87 -44 -176.5t-116 -161t-158.5 -128.5t-175.5 -88.5t-162 -31.5
q-225 0 -225 254q0 69 54 160.5t216 281.5h-348q-73 -87 -125.5 -147.5t-126 -139t-132 -132t-131 -110t-135.5 -90.5t-133.5 -55.5t-137.5 -21.5q-100 0 -165 42t-65 126q0 42 24.5 72t65.5 30q37 0 59.5 -24t22.5 -66q0 -33 -20 -57.5t-45 -24.5q-37 0 -37 -20
q0 -9 22 -21t64.5 -22t89.5 -10q68 0 141.5 26.5t149.5 78.5t145 110t149.5 142.5t140.5 152.5t138 161h-286zM1184 684h344q105 129 266 300.5t244.5 268t83.5 136.5q0 53 -74 53q-107 0 -306 -180.5t-558 -577.5zM2025 1720q0 70 48.5 119t119.5 49t119.5 -49t48.5 -119
t-48.5 -119t-119.5 -49t-119.5 49t-48.5 119zM2050 1720q0 -58 42 -100.5t101 -42.5t101.5 42.5t42.5 100.5t-42.5 101t-101.5 43q-58 0 -100.5 -42.5t-42.5 -101.5z" />
    <glyph glyph-name="AE" unicode="&#xc6;" horiz-adv-x="2732" 
d="M836 659l12 25h299q398 446 594.5 614t318.5 168q60 0 85.5 -25.5t25.5 -76.5q0 -62 -65.5 -165.5t-163 -214.5t-212 -238.5t-212 -237t-163 -210.5t-65.5 -159q0 -151 176 -151q104 0 222 67q-70 70 -70 203q0 104 53.5 206.5t138.5 181t190 134.5t208 76q-8 40 -8 66
q-39 0 -85.5 11.5t-70.5 29.5l16 16q54 -29 140 -37q15 107 98 207t196.5 168t237.5 108.5t225 40.5q168 0 168 -118q0 -69 -71 -137t-179 -119t-230 -91.5t-228.5 -61.5t-171.5 -21q-9 -22 -9 -58q32 8 91 8q54 0 102.5 -24.5t48.5 -61.5q0 -32 -24 -48.5t-58 -16.5
q-48 0 -98 29t-74 77q-59 -30 -130.5 -83t-144.5 -124.5t-133.5 -148.5t-98.5 -162t-38 -158q0 -46 27 -79.5t71.5 -49.5t88 -23t88.5 -7q89 0 189.5 30.5t187.5 81t159 109t114 120t42 109.5q0 52 -28 85t-65 44t-83 11q-198 0 -406 -263l-24 9q70 104 187 191t231 87
q213 0 213 -164q0 -83 -55 -167.5t-148.5 -153t-231.5 -111.5t-290 -43q-151 0 -234 68q-136 -68 -246 -68q-225 0 -225 254q0 69 54 160.5t216 281.5h-348q-73 -87 -125.5 -147.5t-126 -139t-132 -132t-131 -110t-135.5 -90.5t-133.5 -55.5t-137.5 -21.5q-100 0 -165 42
t-65 126q0 42 24.5 72t65.5 30q37 0 59.5 -24t22.5 -66q0 -33 -20 -57.5t-45 -24.5q-37 0 -37 -20q0 -9 22 -21t64.5 -22t89.5 -10q68 0 141.5 26.5t149.5 78.5t145 110t149.5 142.5t140.5 152.5t138 161h-286zM1184 684h344q105 129 266 300.5t244.5 268t83.5 136.5
q0 53 -74 53q-103 0 -304.5 -179.5t-559.5 -578.5zM2454 782q0 28 -44 45t-83 17q-41 0 -82 -13q25 -40 68.5 -65t86.5 -25q54 0 54 41zM3101 1343q0 59 -33 79t-94 20q-69 0 -178 -54t-213.5 -131.5t-195.5 -164t-130 -150.5q87 2 227.5 36.5t278.5 88t238 129t100 147.5z
" />
    <glyph glyph-name="Ccedilla" unicode="&#xc7;" horiz-adv-x="1290" 
d="M276 -266l-12 12q137 31 197 82l-4 4q-8 -4 -25 -4q-21 0 -33 13.5t-12 35.5q0 31 20 52.5t50 21.5q53 0 53 -57q0 -112 -234 -160zM1909 1339q0 103 -172 103q-95 0 -210 -48.5t-215.5 -118t-212 -166.5t-186.5 -172.5t-151 -158.5q165 8 337 49t314 101.5t255.5 131
t177 144t63.5 135.5zM303 205q0 72 25.5 151.5t69 153t90 135.5t98.5 117q-63 6 -117 23.5t-102.5 48.5t-76.5 84t-28 122q0 100 45.5 179.5t121 126.5t166 71.5t187.5 24.5q209 0 340 -78l-12 -25q-149 78 -332 78q-120 0 -220 -45t-161 -133t-61 -203q0 -101 80 -172.5
t198 -77.5q81 110 207.5 226.5t277 219t321.5 168.5t317 66q35 0 66 -5.5t62 -18t49.5 -39t18.5 -64.5q0 -91 -116.5 -196t-289.5 -189.5t-385.5 -141.5t-391.5 -58q-76 -79 -162 -186.5t-161 -236t-75 -200.5q0 -73 56.5 -108t136.5 -35q85 0 201 48.5t216.5 119t171 157.5
t70.5 158q0 52 -33 83.5t-86 31.5q-103 0 -230.5 -94t-211.5 -218l-12 17q22 40 71.5 93t113 104.5t139 86.5t139.5 35q65 0 100 -42.5t35 -112.5q0 -96 -66 -188.5t-166.5 -158t-221.5 -105.5t-230 -40q-117 0 -179.5 62.5t-62.5 179.5z" />
    <glyph glyph-name="Egrave" unicode="&#xc8;" horiz-adv-x="1290" 
d="M983 1397l-12 -17q-100 50 -242 50q-52 0 -105 -14t-101 -41t-78.5 -74t-30.5 -105q0 -60 21 -105.5t53 -72t80.5 -43.5t91.5 -23.5t98 -9.5q12 86 69 168.5t139.5 145.5t179.5 111t193.5 73.5t176.5 25.5q167 0 167 -118q0 -69 -71 -137t-179 -119t-230 -91.5
t-228.5 -61.5t-171.5 -21q-8 -20 -8 -58q32 8 90 8q54 0 102.5 -24.5t48.5 -61.5q0 -32 -24 -48.5t-58 -16.5q-48 0 -98 29t-74 77q-84 -44 -180 -123.5t-176.5 -169t-134 -185.5t-53.5 -165q0 -88 66 -140t208 -52q89 0 189.5 30.5t187.5 81t159 109t114 120t42 109.5
q0 52 -28 85t-65 44t-83 11q-197 0 -405 -263l-25 9q70 104 187 191t231 87q213 0 213 -164q0 -83 -55 -167.5t-148.5 -153t-231.5 -111.5t-290 -43q-161 0 -244.5 74t-83.5 221q0 104 53.5 206.5t138.5 181t190 134.5t208 76q-8 40 -8 66q-76 2 -141.5 16t-124.5 44.5
t-93 87t-34 134.5q0 60 34 109.5t88.5 79t117 45.5t124.5 16q146 0 254 -57zM1012 782q0 28 -44 45t-83 17q-41 0 -82 -13q25 -40 68.5 -65t86.5 -25q54 0 54 41zM1532 1442q-69 0 -178 -54t-213.5 -131.5t-195.5 -164t-130 -150.5q87 2 227.5 36.5t278.5 88t238 129
t100 147.5q0 59 -33 79t-94 20zM1522 1872h106q21 -147 103 -234l-13 -12q-151 103 -196 246z" />
    <glyph glyph-name="Eacute" unicode="&#xc9;" horiz-adv-x="1290" 
d="M983 1397l-12 -17q-100 50 -242 50q-52 0 -105 -14t-101 -41t-78.5 -74t-30.5 -105q0 -60 21 -105.5t53 -72t80.5 -43.5t91.5 -23.5t98 -9.5q12 86 69 168.5t139.5 145.5t179.5 111t193.5 73.5t176.5 25.5q167 0 167 -118q0 -69 -71 -137t-179 -119t-230 -91.5
t-228.5 -61.5t-171.5 -21q-8 -20 -8 -58q32 8 90 8q54 0 102.5 -24.5t48.5 -61.5q0 -32 -24 -48.5t-58 -16.5q-48 0 -98 29t-74 77q-84 -44 -180 -123.5t-176.5 -169t-134 -185.5t-53.5 -165q0 -88 66 -140t208 -52q89 0 189.5 30.5t187.5 81t159 109t114 120t42 109.5
q0 52 -28 85t-65 44t-83 11q-197 0 -405 -263l-25 9q70 104 187 191t231 87q213 0 213 -164q0 -83 -55 -167.5t-148.5 -153t-231.5 -111.5t-290 -43q-161 0 -244.5 74t-83.5 221q0 104 53.5 206.5t138.5 181t190 134.5t208 76q-8 40 -8 66q-76 2 -141.5 16t-124.5 44.5
t-93 87t-34 134.5q0 60 34 109.5t88.5 79t117 45.5t124.5 16q146 0 254 -57zM1012 782q0 28 -44 45t-83 17q-41 0 -82 -13q25 -40 68.5 -65t86.5 -25q54 0 54 41zM1532 1442q-69 0 -178 -54t-213.5 -131.5t-195.5 -164t-130 -150.5q87 2 227.5 36.5t278.5 88t238 129
t100 147.5q0 59 -33 79t-94 20zM1780 1872h110q-40 -78 -111 -142t-151 -104l-8 12q127 105 160 234z" />
    <glyph glyph-name="Ecircumflex" unicode="&#xca;" horiz-adv-x="1290" 
d="M983 1397l-12 -17q-100 50 -242 50q-52 0 -105 -14t-101 -41t-78.5 -74t-30.5 -105q0 -60 21 -105.5t53 -72t80.5 -43.5t91.5 -23.5t98 -9.5q12 86 69 168.5t139.5 145.5t179.5 111t193.5 73.5t176.5 25.5q167 0 167 -118q0 -69 -71 -137t-179 -119t-230 -91.5
t-228.5 -61.5t-171.5 -21q-8 -20 -8 -58q32 8 90 8q54 0 102.5 -24.5t48.5 -61.5q0 -32 -24 -48.5t-58 -16.5q-48 0 -98 29t-74 77q-84 -44 -180 -123.5t-176.5 -169t-134 -185.5t-53.5 -165q0 -88 66 -140t208 -52q89 0 189.5 30.5t187.5 81t159 109t114 120t42 109.5
q0 52 -28 85t-65 44t-83 11q-197 0 -405 -263l-25 9q70 104 187 191t231 87q213 0 213 -164q0 -83 -55 -167.5t-148.5 -153t-231.5 -111.5t-290 -43q-161 0 -244.5 74t-83.5 221q0 104 53.5 206.5t138.5 181t190 134.5t208 76q-8 40 -8 66q-76 2 -141.5 16t-124.5 44.5
t-93 87t-34 134.5q0 60 34 109.5t88.5 79t117 45.5t124.5 16q146 0 254 -57zM1012 782q0 28 -44 45t-83 17q-41 0 -82 -13q25 -40 68.5 -65t86.5 -25q54 0 54 41zM1532 1442q-69 0 -178 -54t-213.5 -131.5t-195.5 -164t-130 -150.5q87 2 227.5 36.5t278.5 88t238 129
t100 147.5q0 59 -33 79t-94 20zM1747 1872h102q-3 -6 -18 -29.5t-21 -35t-16 -31.5t-14 -36.5t-4 -31.5q0 -50 32 -74l-8 -8q-32 12 -53 50.5t-21 80.5q-136 -99 -303 -131l-8 8q196 78 332 238z" />
    <glyph glyph-name="Edieresis" unicode="&#xcb;" horiz-adv-x="1290" 
d="M983 1397l-12 -17q-100 50 -242 50q-52 0 -105 -14t-101 -41t-78.5 -74t-30.5 -105q0 -60 21 -105.5t53 -72t80.5 -43.5t91.5 -23.5t98 -9.5q12 86 69 168.5t139.5 145.5t179.5 111t193.5 73.5t176.5 25.5q167 0 167 -118q0 -69 -71 -137t-179 -119t-230 -91.5
t-228.5 -61.5t-171.5 -21q-8 -20 -8 -58q32 8 90 8q54 0 102.5 -24.5t48.5 -61.5q0 -32 -24 -48.5t-58 -16.5q-48 0 -98 29t-74 77q-84 -44 -180 -123.5t-176.5 -169t-134 -185.5t-53.5 -165q0 -88 66 -140t208 -52q89 0 189.5 30.5t187.5 81t159 109t114 120t42 109.5
q0 52 -28 85t-65 44t-83 11q-197 0 -405 -263l-25 9q70 104 187 191t231 87q213 0 213 -164q0 -83 -55 -167.5t-148.5 -153t-231.5 -111.5t-290 -43q-161 0 -244.5 74t-83.5 221q0 104 53.5 206.5t138.5 181t190 134.5t208 76q-8 40 -8 66q-76 2 -141.5 16t-124.5 44.5
t-93 87t-34 134.5q0 60 34 109.5t88.5 79t117 45.5t124.5 16q146 0 254 -57zM1012 782q0 28 -44 45t-83 17q-41 0 -82 -13q25 -40 68.5 -65t86.5 -25q54 0 54 41zM1532 1442q-69 0 -178 -54t-213.5 -131.5t-195.5 -164t-130 -150.5q87 2 227.5 36.5t278.5 88t238 129
t100 147.5q0 59 -33 79t-94 20zM1526 1761q0 31 20.5 52.5t48.5 21.5q27 0 40.5 -20.5t13.5 -53.5q0 -30 -21 -51.5t-49 -21.5q-26 0 -39.5 20t-13.5 53zM1804 1761q0 30 21 52t49 22q26 0 39.5 -20.5t13.5 -53.5q0 -30 -20.5 -51.5t-48.5 -21.5q-27 0 -40.5 20.5
t-13.5 52.5z" />
    <glyph glyph-name="Igrave" unicode="&#xcc;" horiz-adv-x="1138" 
d="M995 1114h25q0 -128 -36.5 -234.5t-97 -175t-136 -106t-156.5 -37.5q-112 0 -162.5 65.5t-50.5 168.5q0 94 44 193.5t117 183t161.5 151t184 105.5t177.5 38q85 0 242 -53t239 -53q151 0 293 94l8 -12q-101 -75 -198.5 -176.5t-177 -204t-159.5 -215.5t-153 -218
t-150 -205.5t-159 -183t-170 -145t-193.5 -97t-220.5 -34.5q-41 0 -82 7.5t-81.5 24t-65.5 48.5t-25 76q0 51 29 78.5t74 27.5q41 0 67.5 -26.5t26.5 -59.5q0 -37 -23 -61.5t-59 -24.5q-29 0 -29 -16q0 -11 17 -21.5t55 -19t88 -8.5q97 0 189 42t173 116.5t158.5 167.5
t160 206.5t161.5 220.5t178.5 222t196.5 200q171 150 254 205l-5 4q-172 -98 -290 -98q-81 0 -222 59q-147 60 -249 60q-84 0 -183.5 -56t-181.5 -141t-137 -194t-55 -207q0 -104 50.5 -156.5t137.5 -52.5q36 0 86 23t105 69.5t102 107.5t77.5 148t30.5 180zM1446 1872h106
q21 -147 103 -234l-13 -12q-151 103 -196 246z" />
    <glyph glyph-name="Iacute" unicode="&#xcd;" horiz-adv-x="1138" 
d="M995 1114h25q0 -128 -36.5 -234.5t-97 -175t-136 -106t-156.5 -37.5q-112 0 -162.5 65.5t-50.5 168.5q0 94 44 193.5t117 183t161.5 151t184 105.5t177.5 38q85 0 242 -53t239 -53q151 0 293 94l8 -12q-101 -75 -198.5 -176.5t-177 -204t-159.5 -215.5t-153 -218
t-150 -205.5t-159 -183t-170 -145t-193.5 -97t-220.5 -34.5q-41 0 -82 7.5t-81.5 24t-65.5 48.5t-25 76q0 51 29 78.5t74 27.5q41 0 67.5 -26.5t26.5 -59.5q0 -37 -23 -61.5t-59 -24.5q-29 0 -29 -16q0 -11 17 -21.5t55 -19t88 -8.5q97 0 189 42t173 116.5t158.5 167.5
t160 206.5t161.5 220.5t178.5 222t196.5 200q171 150 254 205l-5 4q-172 -98 -290 -98q-81 0 -222 59q-147 60 -249 60q-84 0 -183.5 -56t-181.5 -141t-137 -194t-55 -207q0 -104 50.5 -156.5t137.5 -52.5q36 0 86 23t105 69.5t102 107.5t77.5 148t30.5 180zM1675 1872h111
q-40 -78 -111 -142t-151 -104l-8 12q126 104 159 234z" />
    <glyph glyph-name="Icircumflex" unicode="&#xce;" horiz-adv-x="1138" 
d="M995 1114h25q0 -128 -36.5 -234.5t-97 -175t-136 -106t-156.5 -37.5q-112 0 -162.5 65.5t-50.5 168.5q0 94 44 193.5t117 183t161.5 151t184 105.5t177.5 38q85 0 242 -53t239 -53q151 0 293 94l8 -12q-101 -75 -198.5 -176.5t-177 -204t-159.5 -215.5t-153 -218
t-150 -205.5t-159 -183t-170 -145t-193.5 -97t-220.5 -34.5q-41 0 -82 7.5t-81.5 24t-65.5 48.5t-25 76q0 51 29 78.5t74 27.5q41 0 67.5 -26.5t26.5 -59.5q0 -37 -23 -61.5t-59 -24.5q-29 0 -29 -16q0 -11 17 -21.5t55 -19t88 -8.5q97 0 189 42t173 116.5t158.5 167.5
t160 206.5t161.5 220.5t178.5 222t196.5 200q171 150 254 205l-5 4q-172 -98 -290 -98q-81 0 -222 59q-147 60 -249 60q-84 0 -183.5 -56t-181.5 -141t-137 -194t-55 -207q0 -104 50.5 -156.5t137.5 -52.5q36 0 86 23t105 69.5t102 107.5t77.5 148t30.5 180zM1671 1872h103
q-4 -7 -18 -29.5t-21 -35t-16.5 -32t-14 -36t-4.5 -31.5q0 -49 33 -74l-9 -8q-32 12 -52.5 50.5t-20.5 80.5q-136 -99 -303 -131l-9 8q196 78 332 238z" />
    <glyph glyph-name="Idieresis" unicode="&#xcf;" horiz-adv-x="1138" 
d="M995 1114h25q0 -128 -36.5 -234.5t-97 -175t-136 -106t-156.5 -37.5q-112 0 -162.5 65.5t-50.5 168.5q0 94 44 193.5t117 183t161.5 151t184 105.5t177.5 38q85 0 242 -53t239 -53q151 0 293 94l8 -12q-101 -75 -198.5 -176.5t-177 -204t-159.5 -215.5t-153 -218
t-150 -205.5t-159 -183t-170 -145t-193.5 -97t-220.5 -34.5q-41 0 -82 7.5t-81.5 24t-65.5 48.5t-25 76q0 51 29 78.5t74 27.5q41 0 67.5 -26.5t26.5 -59.5q0 -37 -23 -61.5t-59 -24.5q-29 0 -29 -16q0 -11 17 -21.5t55 -19t88 -8.5q97 0 189 42t173 116.5t158.5 167.5
t160 206.5t161.5 220.5t178.5 222t196.5 200q171 150 254 205l-5 4q-172 -98 -290 -98q-81 0 -222 59q-147 60 -249 60q-84 0 -183.5 -56t-181.5 -141t-137 -194t-55 -207q0 -104 50.5 -156.5t137.5 -52.5q36 0 86 23t105 69.5t102 107.5t77.5 148t30.5 180zM1450 1761
q0 30 21 52t49 22q26 0 39.5 -20.5t13.5 -53.5q0 -30 -21 -51.5t-49 -21.5q-26 0 -39.5 20t-13.5 53zM1729 1761q0 31 20.5 52.5t48.5 21.5q26 0 39.5 -20.5t13.5 -53.5q0 -30 -20.5 -51.5t-48.5 -21.5q-26 0 -39.5 20t-13.5 53z" />
    <glyph glyph-name="Eth" unicode="&#xd0;" horiz-adv-x="1593" 
d="M1462 483h-340q-112 -142 -238 -247t-302 -183q135 -53 233 -53q121 0 243.5 42t226 112t194.5 164.5t154 198t99.5 213t36.5 208.5q0 138 -57 258q-88 -78 -173.5 -174.5t-140 -170t-131 -178.5t-124.5 -165h340zM745 508h254q192 266 334 417t363 300
q-62 96 -205.5 156.5t-314.5 60.5q-119 0 -227.5 -29.5t-189 -78.5t-146 -110.5t-106.5 -126.5t-63 -125t-22 -108q0 -200 188 -200q82 0 193 72t192.5 178t81.5 192q0 48 -34.5 79.5t-79.5 31.5q-60 0 -132 -44t-126 -106l-19 16q54 65 129 111.5t143 46.5
q61 0 102.5 -36.5t41.5 -98.5q0 -65 -46 -147t-116.5 -152.5t-164.5 -119t-181 -48.5q-114 0 -180 63.5t-66 161.5q0 68 38 149t112.5 160.5t172 145t229 106.5t271.5 41q104 0 203 -21t194 -74.5t148 -133.5q173 125 348 143v-24q-165 -16 -331 -148q61 -100 61 -270
q0 -111 -38.5 -228.5t-105.5 -225t-163 -203t-206.5 -166t-241 -111.5t-261.5 -41q-122 0 -282 45q-62 -19 -150 -32t-156 -13q-91 0 -130.5 19t-39.5 59q0 41 44.5 65.5t130.5 24.5q82 0 182 -21t172 -49q108 48 209.5 152t224.5 270h-258zM152 94q-50 0 -78.5 -16.5
t-28.5 -40.5t25.5 -36.5t95.5 -12.5q145 0 287 39v4q-221 63 -301 63z" />
    <glyph glyph-name="Ntilde" unicode="&#xd1;" horiz-adv-x="1593" 
d="M1552 1479l13 -17q-42 -32 -75 -71t-55 -88t-37 -92.5t-25.5 -107t-16 -108t-13.5 -118.5q-3 -26 -4 -39q-10 -93 -19.5 -157.5t-32 -155t-53 -161.5t-83 -152t-121.5 -151l4 -4q95 82 202.5 208.5t201 254.5t195 266.5t199 257.5t196.5 215t205 151.5t208 55.5
q69 0 110.5 -32t41.5 -82q0 -44 -28.5 -69.5t-72.5 -25.5q-41 0 -68.5 24t-27.5 58q0 19 8.5 35t18 23.5t18 15t8.5 12.5q0 17 -41 17q-74 0 -158 -44.5t-167 -122t-170 -178t-174 -215.5t-173.5 -231.5t-173 -229.5t-167 -206t-163 -163.5t-153.5 -100.5l-12 16
q38 21 69 48t55.5 63.5t43 69.5t33.5 83t25 87t19.5 97.5t15 97.5t13.5 105q10 78 16 122t19 117.5t26 121t35 112t48.5 111.5t64 97.5t82.5 91.5l-4 4q-101 -75 -213 -197t-209.5 -252t-199 -271.5t-197.5 -266.5t-189 -226t-189 -160t-183 -59q-94 0 -139 39.5t-45 95.5
q0 51 26.5 81t75.5 30q38 0 66 -23t28 -59q0 -41 -24.5 -65.5t-57.5 -24.5t-33 -12q0 -16 26.5 -26.5t76.5 -10.5q82 0 180.5 69t198.5 183.5t206.5 255t219 292t220.5 286t226.5 245t222.5 160.5zM2238 1794l13 -8q-19 -24 -31.5 -38t-37.5 -37.5t-51 -35.5t-52 -12
q-8 0 -17 1.5t-16 3.5t-18.5 7t-17 7.5t-19.5 9t-19 8.5q-76 37 -119 37q-24 0 -59 -22t-47 -44l-12 4q27 37 48.5 62t58.5 49t73 24q37 0 119 -36.5t106 -36.5q25 0 52 16t46 41z" />
    <glyph glyph-name="Ograve" unicode="&#xd2;" horiz-adv-x="1363" 
d="M1339 958h25q0 -100 -51.5 -197.5t-139 -160.5t-182.5 -63q-92 0 -142 42t-50 126q0 82 57 171.5t140.5 156.5t183 111t180.5 44q107 0 172 -65t65 -197q0 -48 -23.5 -114.5t-66.5 -143t-107 -158.5t-140.5 -160.5t-172.5 -148.5t-198 -123t-221 -84t-238 -31
q-180 0 -264 92t-84 244q0 123 67.5 262.5t178.5 266t256 245t295.5 204.5t302.5 137.5t272 51.5q177 0 279 -77t102 -234q0 -63 -25 -121.5t-50 -89t-72 -80.5l-21 13q69 73 106 134.5t37 139.5q0 145 -91 218t-240 73q-103 0 -245.5 -62t-287 -162t-288 -232t-254.5 -267
t-179.5 -272t-68.5 -242q0 -106 71.5 -161.5t202.5 -55.5q151 0 303 52.5t274.5 137t230 189t180 209t114 197t41.5 153.5q0 107 -55.5 172t-157.5 65q-107 0 -234.5 -73.5t-215 -182.5t-87.5 -202q0 -73 45 -108.5t123 -35.5q73 0 155 65t136.5 159t56.5 173zM1559 1872
h106q22 -148 102 -234l-12 -12q-151 103 -196 246z" />
    <glyph glyph-name="Oacute" unicode="&#xd3;" horiz-adv-x="1363" 
d="M1339 958h25q0 -100 -51.5 -197.5t-139 -160.5t-182.5 -63q-92 0 -142 42t-50 126q0 82 57 171.5t140.5 156.5t183 111t180.5 44q107 0 172 -65t65 -197q0 -48 -23.5 -114.5t-66.5 -143t-107 -158.5t-140.5 -160.5t-172.5 -148.5t-198 -123t-221 -84t-238 -31
q-180 0 -264 92t-84 244q0 123 67.5 262.5t178.5 266t256 245t295.5 204.5t302.5 137.5t272 51.5q177 0 279 -77t102 -234q0 -63 -25 -121.5t-50 -89t-72 -80.5l-21 13q69 73 106 134.5t37 139.5q0 145 -91 218t-240 73q-103 0 -245.5 -62t-287 -162t-288 -232t-254.5 -267
t-179.5 -272t-68.5 -242q0 -106 71.5 -161.5t202.5 -55.5q151 0 303 52.5t274.5 137t230 189t180 209t114 197t41.5 153.5q0 107 -55.5 172t-157.5 65q-107 0 -234.5 -73.5t-215 -182.5t-87.5 -202q0 -73 45 -108.5t123 -35.5q73 0 155 65t136.5 159t56.5 173zM1817 1872
h110q-40 -78 -111 -142t-151 -104l-8 12q127 105 160 234z" />
    <glyph glyph-name="Ocircumflex" unicode="&#xd4;" horiz-adv-x="1363" 
d="M1339 958h25q0 -100 -51.5 -197.5t-139 -160.5t-182.5 -63q-92 0 -142 42t-50 126q0 82 57 171.5t140.5 156.5t183 111t180.5 44q107 0 172 -65t65 -197q0 -48 -23.5 -114.5t-66.5 -143t-107 -158.5t-140.5 -160.5t-172.5 -148.5t-198 -123t-221 -84t-238 -31
q-180 0 -264 92t-84 244q0 123 67.5 262.5t178.5 266t256 245t295.5 204.5t302.5 137.5t272 51.5q177 0 279 -77t102 -234q0 -63 -25 -121.5t-50 -89t-72 -80.5l-21 13q69 73 106 134.5t37 139.5q0 145 -91 218t-240 73q-103 0 -245.5 -62t-287 -162t-288 -232t-254.5 -267
t-179.5 -272t-68.5 -242q0 -106 71.5 -161.5t202.5 -55.5q151 0 303 52.5t274.5 137t230 189t180 209t114 197t41.5 153.5q0 107 -55.5 172t-157.5 65q-107 0 -234.5 -73.5t-215 -182.5t-87.5 -202q0 -73 45 -108.5t123 -35.5q73 0 155 65t136.5 159t56.5 173zM1784 1872
h102q-4 -7 -18 -29.5t-21 -35t-16.5 -32t-14 -36t-4.5 -31.5q0 -49 33 -74l-8 -8q-32 12 -53 50.5t-21 80.5q-136 -99 -303 -131l-8 8q196 78 332 238z" />
    <glyph glyph-name="Otilde" unicode="&#xd5;" horiz-adv-x="1363" 
d="M1339 958h25q0 -100 -51.5 -197.5t-139 -160.5t-182.5 -63q-92 0 -142 42t-50 126q0 82 57 171.5t140.5 156.5t183 111t180.5 44q107 0 172 -65t65 -197q0 -48 -23.5 -114.5t-66.5 -143t-107 -158.5t-140.5 -160.5t-172.5 -148.5t-198 -123t-221 -84t-238 -31
q-180 0 -264 92t-84 244q0 123 67.5 262.5t178.5 266t256 245t295.5 204.5t302.5 137.5t272 51.5q177 0 279 -77t102 -234q0 -63 -25 -121.5t-50 -89t-72 -80.5l-21 13q69 73 106 134.5t37 139.5q0 145 -91 218t-240 73q-103 0 -245.5 -62t-287 -162t-288 -232t-254.5 -267
t-179.5 -272t-68.5 -242q0 -106 71.5 -161.5t202.5 -55.5q151 0 303 52.5t274.5 137t230 189t180 209t114 197t41.5 153.5q0 107 -55.5 172t-157.5 65q-107 0 -234.5 -73.5t-215 -182.5t-87.5 -202q0 -73 45 -108.5t123 -35.5q73 0 155 65t136.5 159t56.5 173zM1989 1794
l12 -8q-19 -24 -31.5 -38t-37.5 -37.5t-51 -35.5t-52 -12q-8 0 -17 1.5t-16 3.5t-18.5 7t-17 7.5t-19.5 9t-19 8.5q-76 37 -118 37q-24 0 -59.5 -22t-47.5 -44l-12 4q27 37 48.5 62t58.5 49t73 24q37 0 119 -36.5t106 -36.5q25 0 52.5 16t46.5 41z" />
    <glyph glyph-name="Odieresis" unicode="&#xd6;" horiz-adv-x="1363" 
d="M1339 958h25q0 -100 -51.5 -197.5t-139 -160.5t-182.5 -63q-92 0 -142 42t-50 126q0 82 57 171.5t140.5 156.5t183 111t180.5 44q107 0 172 -65t65 -197q0 -48 -23.5 -114.5t-66.5 -143t-107 -158.5t-140.5 -160.5t-172.5 -148.5t-198 -123t-221 -84t-238 -31
q-180 0 -264 92t-84 244q0 123 67.5 262.5t178.5 266t256 245t295.5 204.5t302.5 137.5t272 51.5q177 0 279 -77t102 -234q0 -63 -25 -121.5t-50 -89t-72 -80.5l-21 13q69 73 106 134.5t37 139.5q0 145 -91 218t-240 73q-103 0 -245.5 -62t-287 -162t-288 -232t-254.5 -267
t-179.5 -272t-68.5 -242q0 -106 71.5 -161.5t202.5 -55.5q151 0 303 52.5t274.5 137t230 189t180 209t114 197t41.5 153.5q0 107 -55.5 172t-157.5 65q-107 0 -234.5 -73.5t-215 -182.5t-87.5 -202q0 -73 45 -108.5t123 -35.5q73 0 155 65t136.5 159t56.5 173zM1563 1761
q0 31 20.5 52.5t48.5 21.5q27 0 40.5 -20.5t13.5 -53.5q0 -30 -21 -51.5t-49 -21.5q-26 0 -39.5 20t-13.5 53zM1841 1761q0 30 21 52t49 22q26 0 39.5 -20.5t13.5 -53.5q0 -30 -21 -51.5t-49 -21.5q-26 0 -39.5 20t-13.5 53z" />
    <glyph glyph-name="multiply" unicode="&#xd7;" horiz-adv-x="1363" 
d="M354 109l414 409l-414 414l37 37l414 -412l414 412l36 -37l-411 -414l411 -409l-36 -41l-414 415l-414 -415z" />
    <glyph glyph-name="Oslash" unicode="&#xd8;" horiz-adv-x="1363" 
d="M1417 1182l219 231q-68 29 -157 29q-103 0 -245.5 -62t-287 -162t-288 -232t-254.5 -267t-179.5 -272t-68.5 -242q0 -153 145 -199l547 574q-49 43 -49 125t57 171.5t140.5 156.5t183 111t180.5 44q33 0 57 -6zM100 -209l181 195q-103 34 -151 116t-48 197
q0 123 67.5 262.5t178.5 266t256 245t295.5 204.5t302.5 137.5t272 51.5q122 0 201 -32l174 184l16 -16l-168 -179q158 -74 158 -268q0 -63 -25 -121.5t-50 -89t-72 -80.5l-21 13q69 73 106 134.5t37 139.5q0 186 -149 254l-217 -229q71 -21 112 -83.5t41 -166.5
q0 -48 -23.5 -114.5t-66.5 -143t-107 -158.5t-140.5 -160.5t-172.5 -148.5t-198 -123t-221 -84t-238 -31q-60 0 -121 14l-192 -206zM868 565l-538 -567q36 -10 100 -10q151 0 303 52.5t274.5 137t230 189t180 209t114 197t41.5 153.5q0 89 -39 150t-111 79l-536 -569
q39 -25 104 -25q73 0 155 65t136.5 159t56.5 173h25q0 -100 -51.5 -197.5t-139 -160.5t-182.5 -63q-75 0 -123 28zM866 600l529 559q-12 4 -35 4q-107 0 -234.5 -73.5t-215 -182.5t-87.5 -202q0 -68 43 -105z" />
    <glyph glyph-name="Ugrave" unicode="&#xd9;" horiz-adv-x="1896" 
d="M1905 1323h135l-881 -997q-94 -108 -94 -203q0 -73 41 -104t119 -31q95 0 201 58t186 140t133 170t53 148q0 33 -26 57.5t-60 24.5q-33 0 -72 -20t-82.5 -59t-73 -69t-72.5 -77.5t-52 -57.5l-17 16q11 11 54 57t76.5 79t79 72.5t87.5 61t76 21.5q47 0 77 -34t30 -97
q0 -87 -59 -182t-146.5 -167.5t-192.5 -119.5t-192 -47q-109 0 -175.5 57.5t-66.5 159.5q0 79 68 176l-4 4q-191 -197 -329.5 -297t-248.5 -100q-166 0 -166 172q0 66 60 166t150 202.5t195.5 218t195.5 213t150 187t60 140.5q0 81 -52 130.5t-128 49.5q-65 0 -147 -26
t-166 -70.5t-164.5 -107.5t-142.5 -132t-100 -150t-38 -157q0 -67 37.5 -105.5t93.5 -38.5q45 0 111 35.5t129.5 92.5t108.5 141.5t45 169.5v53h24v-82q0 -110 -60.5 -211t-157.5 -162t-200 -61q-67 0 -111 43.5t-44 126.5t39.5 169t104.5 157.5t147.5 135.5t168 108
t167 69.5t143.5 25.5q135 0 213 -66.5t78 -170.5q0 -62 -47.5 -146.5t-123.5 -173t-167.5 -183.5t-183.5 -187.5t-168 -175t-123.5 -156t-47.5 -121.5q0 -57 33.5 -77.5t98.5 -20.5q51 0 123 37t139 89t143 122t124 120t93 99zM1427 1872h107q22 -148 102 -234l-12 -12
q-153 103 -197 246z" />
    <glyph glyph-name="Uacute" unicode="&#xda;" horiz-adv-x="1896" 
d="M1905 1323h135l-881 -997q-94 -108 -94 -203q0 -73 41 -104t119 -31q95 0 201 58t186 140t133 170t53 148q0 33 -26 57.5t-60 24.5q-33 0 -72 -20t-82.5 -59t-73 -69t-72.5 -77.5t-52 -57.5l-17 16q11 11 54 57t76.5 79t79 72.5t87.5 61t76 21.5q47 0 77 -34t30 -97
q0 -87 -59 -182t-146.5 -167.5t-192.5 -119.5t-192 -47q-109 0 -175.5 57.5t-66.5 159.5q0 79 68 176l-4 4q-191 -197 -329.5 -297t-248.5 -100q-166 0 -166 172q0 66 60 166t150 202.5t195.5 218t195.5 213t150 187t60 140.5q0 81 -52 130.5t-128 49.5q-65 0 -147 -26
t-166 -70.5t-164.5 -107.5t-142.5 -132t-100 -150t-38 -157q0 -67 37.5 -105.5t93.5 -38.5q45 0 111 35.5t129.5 92.5t108.5 141.5t45 169.5v53h24v-82q0 -110 -60.5 -211t-157.5 -162t-200 -61q-67 0 -111 43.5t-44 126.5t39.5 169t104.5 157.5t147.5 135.5t168 108
t167 69.5t143.5 25.5q135 0 213 -66.5t78 -170.5q0 -62 -47.5 -146.5t-123.5 -173t-167.5 -183.5t-183.5 -187.5t-168 -175t-123.5 -156t-47.5 -121.5q0 -57 33.5 -77.5t98.5 -20.5q51 0 123 37t139 89t143 122t124 120t93 99zM1686 1872h110q-40 -78 -111 -142t-151 -104
l-8 12q127 105 160 234z" />
    <glyph glyph-name="Ucircumflex" unicode="&#xdb;" horiz-adv-x="1896" 
d="M1905 1323h135l-881 -997q-94 -108 -94 -203q0 -73 41 -104t119 -31q95 0 201 58t186 140t133 170t53 148q0 33 -26 57.5t-60 24.5q-33 0 -72 -20t-82.5 -59t-73 -69t-72.5 -77.5t-52 -57.5l-17 16q11 11 54 57t76.5 79t79 72.5t87.5 61t76 21.5q47 0 77 -34t30 -97
q0 -87 -59 -182t-146.5 -167.5t-192.5 -119.5t-192 -47q-109 0 -175.5 57.5t-66.5 159.5q0 79 68 176l-4 4q-191 -197 -329.5 -297t-248.5 -100q-166 0 -166 172q0 66 60 166t150 202.5t195.5 218t195.5 213t150 187t60 140.5q0 81 -52 130.5t-128 49.5q-65 0 -147 -26
t-166 -70.5t-164.5 -107.5t-142.5 -132t-100 -150t-38 -157q0 -67 37.5 -105.5t93.5 -38.5q45 0 111 35.5t129.5 92.5t108.5 141.5t45 169.5v53h24v-82q0 -110 -60.5 -211t-157.5 -162t-200 -61q-67 0 -111 43.5t-44 126.5t39.5 169t104.5 157.5t147.5 135.5t168 108
t167 69.5t143.5 25.5q135 0 213 -66.5t78 -170.5q0 -62 -47.5 -146.5t-123.5 -173t-167.5 -183.5t-183.5 -187.5t-168 -175t-123.5 -156t-47.5 -121.5q0 -57 33.5 -77.5t98.5 -20.5q51 0 123 37t139 89t143 122t124 120t93 99zM1653 1872h102q-4 -7 -18 -29.5t-21 -35
t-16.5 -32t-14 -36t-4.5 -31.5q0 -49 33 -74l-8 -8q-32 12 -53 50.5t-21 80.5q-136 -99 -303 -131l-8 8q196 78 332 238z" />
    <glyph glyph-name="Udieresis" unicode="&#xdc;" horiz-adv-x="1896" 
d="M1905 1323h135l-881 -997q-94 -108 -94 -203q0 -73 41 -104t119 -31q95 0 201 58t186 140t133 170t53 148q0 33 -26 57.5t-60 24.5q-33 0 -72 -20t-82.5 -59t-73 -69t-72.5 -77.5t-52 -57.5l-17 16q11 11 54 57t76.5 79t79 72.5t87.5 61t76 21.5q47 0 77 -34t30 -97
q0 -87 -59 -182t-146.5 -167.5t-192.5 -119.5t-192 -47q-109 0 -175.5 57.5t-66.5 159.5q0 79 68 176l-4 4q-191 -197 -329.5 -297t-248.5 -100q-166 0 -166 172q0 66 60 166t150 202.5t195.5 218t195.5 213t150 187t60 140.5q0 81 -52 130.5t-128 49.5q-65 0 -147 -26
t-166 -70.5t-164.5 -107.5t-142.5 -132t-100 -150t-38 -157q0 -67 37.5 -105.5t93.5 -38.5q45 0 111 35.5t129.5 92.5t108.5 141.5t45 169.5v53h24v-82q0 -110 -60.5 -211t-157.5 -162t-200 -61q-67 0 -111 43.5t-44 126.5t39.5 169t104.5 157.5t147.5 135.5t168 108
t167 69.5t143.5 25.5q135 0 213 -66.5t78 -170.5q0 -62 -47.5 -146.5t-123.5 -173t-167.5 -183.5t-183.5 -187.5t-168 -175t-123.5 -156t-47.5 -121.5q0 -57 33.5 -77.5t98.5 -20.5q51 0 123 37t139 89t143 122t124 120t93 99zM1432 1761q0 31 20.5 52.5t48.5 21.5
q26 0 39.5 -20.5t13.5 -53.5q0 -30 -20.5 -51.5t-48.5 -21.5q-26 0 -39.5 20t-13.5 53zM1710 1761q0 30 21 52t49 22q26 0 39.5 -20.5t13.5 -53.5q0 -30 -21 -51.5t-49 -21.5q-26 0 -39.5 20t-13.5 53z" />
    <glyph glyph-name="Yacute" unicode="&#xdd;" horiz-adv-x="1744" 
d="M1217 438l806 918h144l-1192 -1340q92 11 183 35t185.5 69t165.5 104t116.5 145.5t45.5 187.5q0 16 -8 66h25q8 -66 8 -103q0 -425 -746 -536q-261 -305 -442.5 -435.5t-351.5 -130.5q-66 0 -111 37.5t-45 114.5q0 52 23 96.5t81 90.5t151.5 86t240 78t340.5 71l260 297
l-4 4q-111 -105 -233.5 -176.5t-223.5 -71.5q-90 0 -133 41t-43 107q0 94 102 204l625 693q84 94 84 167q0 62 -34 105.5t-83.5 61.5t-108.5 18q-88 0 -192.5 -37.5t-201 -102.5t-177.5 -145t-129.5 -173t-48.5 -177q0 -75 48.5 -123.5t127.5 -48.5q84 0 185 76t171 188
t70 207q0 61 -12 90h20q17 -70 17 -102q0 -117 -64.5 -229.5t-171.5 -183.5t-223 -71q-95 0 -144 58t-49 135q0 83 37.5 168.5t99 157t141.5 135t164.5 107.5t168 69.5t151.5 25.5q140 0 225.5 -68t85.5 -186q0 -115 -147 -270l-582 -631q-82 -88 -82 -159q0 -43 27.5 -62.5
t71.5 -19.5q64 0 156 43.5t176.5 106t152 121t101.5 97.5zM25 -438q0 -54 36 -86.5t99 -32.5q43 0 81 9.5t83.5 36t88.5 61t108 98.5t129.5 132.5t164.5 178.5l-4 4q-419 -72 -602.5 -168t-183.5 -233zM1712 1872h111q-40 -78 -111 -142t-151 -104l-9 12q127 105 160 234z
" />
    <glyph glyph-name="Thorn" unicode="&#xde;" horiz-adv-x="1818" 
d="M1825 1442l14 -17q-142 -87 -261.5 -216t-209.5 -277l4 -4q48 39 131 67.5t152 28.5q96 0 171 -65t75 -160q0 -117 -67 -230t-169.5 -193t-227 -129.5t-237.5 -49.5q-57 0 -111 15t-95.5 50.5t-43.5 85.5q-328 -385 -727 -385q-94 0 -152.5 49t-58.5 111q0 48 24 75
t62 27q35 0 60.5 -22.5t25.5 -55.5q0 -26 -15.5 -43.5t-33.5 -23t-33.5 -14.5t-15.5 -21q0 -18 42.5 -37.5t84.5 -19.5q135 0 244 44t193.5 125t160.5 183t165 231t184.5 255.5t241 270t314.5 261.5l-4 4q-68 -45 -164 -87t-166 -42q-43 0 -100.5 27t-105.5 59t-107.5 59
t-105.5 27q-87 0 -185 -67.5t-163.5 -168.5t-65.5 -190q0 -79 47 -119.5t117 -40.5t168 57t179.5 143.5t106.5 164.5l13 -8q-20 -63 -64 -129t-102 -123t-133 -93t-148 -36q-95 0 -152 46t-57 142q0 89 50 179t125.5 155.5t165.5 107t167 41.5q66 0 133.5 -27t113 -59
t99.5 -59t97 -27q93 0 350 148zM1618 987q-89 0 -180.5 -44t-139.5 -116q-177 -261 -233 -335q-90 -120 -90 -156q0 -32 54 -67.5t147 -35.5q90 0 199 54.5t200.5 137.5t153 192t61.5 210q0 75 -48 117.5t-124 42.5z" />
    <glyph glyph-name="germandbls" unicode="&#xdf;" 
d="M-602 -532l1257 1433q117 126 198 207t176.5 162t176 120.5t150.5 39.5q59 0 89 -27.5t30 -75.5q0 -79 -34.5 -159.5t-90 -146.5t-124.5 -123.5t-139 -97t-133 -59.5q29 -48 29 -143t-65.5 -209.5t-161 -207t-211 -155.5t-209.5 -63q-55 0 -89 36.5t-34 96.5q0 58 46 110
t99 52q36 0 58 -23.5t22 -50.5q0 -28 -22 -50.5t-54 -22.5q-71 0 -71 94q-53 -53 -53 -119q0 -41 26 -69.5t68 -28.5q57 0 162.5 84.5t204.5 196.5t173 230.5t74 180.5q0 33 -16 53q-40 -16 -82 -16q-82 0 -82 53q0 29 22.5 47.5t51.5 18.5q30 0 60 -22.5t42 -51.5
q75 32 196.5 145t216.5 238.5t95 185.5q0 38 -25.5 56t-68.5 18q-37 0 -81 -21.5t-83 -51t-99.5 -89.5t-104 -107.5t-124.5 -136.5t-135 -147l-1188 -1384h-143zM791 774q0 -33 57 -33q48 0 74 13q-9 22 -32.5 39.5t-45.5 17.5t-37.5 -11t-15.5 -26z" />
    <glyph glyph-name="agrave" unicode="&#xe0;" 
d="M856 606h143q-139 -133 -467 -495q-49 -54 -49 -80q0 -43 49 -43q80 0 260 127.5t273 224.5l20 -12q-62 -65 -158 -144.5t-214.5 -150t-188.5 -70.5q-42 0 -66 25.5t-24 56.5q0 46 19 86h-4q-177 -168 -306 -168q-62 0 -96.5 35.5t-34.5 99.5q0 73 47.5 153t121.5 145.5
t157.5 120t161 84.5t127.5 30q54 0 90.5 -23.5t36.5 -62.5q0 -21 -9 -49h5zM729 535q0 33 -25 52t-55 19q-49 0 -96.5 -26.5t-139.5 -112t-263 -266.5q-89 -93 -89 -150q0 -28 22 -45.5t60 -17.5q69 0 173 70.5t193.5 163t154.5 183.5t65 130zM774 1053h107
q22 -148 102 -234l-12 -12q-153 103 -197 246z" />
    <glyph glyph-name="aacute" unicode="&#xe1;" 
d="M856 606h143q-139 -133 -467 -495q-49 -54 -49 -80q0 -43 49 -43q80 0 260 127.5t273 224.5l20 -12q-62 -65 -158 -144.5t-214.5 -150t-188.5 -70.5q-42 0 -66 25.5t-24 56.5q0 46 19 86h-4q-177 -168 -306 -168q-62 0 -96.5 35.5t-34.5 99.5q0 73 47.5 153t121.5 145.5
t157.5 120t161 84.5t127.5 30q54 0 90.5 -23.5t36.5 -62.5q0 -21 -9 -49h5zM729 535q0 33 -25 52t-55 19q-49 0 -96.5 -26.5t-139.5 -112t-263 -266.5q-89 -93 -89 -150q0 -28 22 -45.5t60 -17.5q69 0 173 70.5t193.5 163t154.5 183.5t65 130zM879 1053h110
q-40 -78 -111 -142t-151 -104l-8 12q127 105 160 234z" />
    <glyph glyph-name="acircumflex" unicode="&#xe2;" 
d="M856 606h143q-139 -133 -467 -495q-49 -54 -49 -80q0 -43 49 -43q80 0 260 127.5t273 224.5l20 -12q-62 -65 -158 -144.5t-214.5 -150t-188.5 -70.5q-42 0 -66 25.5t-24 56.5q0 46 19 86h-4q-177 -168 -306 -168q-62 0 -96.5 35.5t-34.5 99.5q0 73 47.5 153t121.5 145.5
t157.5 120t161 84.5t127.5 30q54 0 90.5 -23.5t36.5 -62.5q0 -21 -9 -49h5zM729 535q0 33 -25 52t-55 19q-49 0 -96.5 -26.5t-139.5 -112t-263 -266.5q-89 -93 -89 -150q0 -28 22 -45.5t60 -17.5q69 0 173 70.5t193.5 163t154.5 183.5t65 130zM899 1053h102q-3 -6 -18 -29.5
t-21 -35t-16 -31.5t-14 -36.5t-4 -31.5q0 -49 33 -74l-9 -8q-32 12 -52.5 50.5t-20.5 80.5q-135 -99 -304 -131l-8 8q196 78 332 238z" />
    <glyph glyph-name="atilde" unicode="&#xe3;" 
d="M856 606h143q-139 -133 -467 -495q-49 -54 -49 -80q0 -43 49 -43q80 0 260 127.5t273 224.5l20 -12q-62 -65 -158 -144.5t-214.5 -150t-188.5 -70.5q-42 0 -66 25.5t-24 56.5q0 46 19 86h-4q-177 -168 -306 -168q-62 0 -96.5 35.5t-34.5 99.5q0 73 47.5 153t121.5 145.5
t157.5 120t161 84.5t127.5 30q54 0 90.5 -23.5t36.5 -62.5q0 -21 -9 -49h5zM729 535q0 33 -25 52t-55 19q-49 0 -96.5 -26.5t-139.5 -112t-263 -266.5q-89 -93 -89 -150q0 -28 22 -45.5t60 -17.5q69 0 173 70.5t193.5 163t154.5 183.5t65 130zM1079 975l13 -8
q-19 -24 -31.5 -38t-37.5 -37.5t-51 -35.5t-52 -12q-8 0 -17 1.5t-16 3.5t-18.5 7t-17 7.5t-19.5 9t-19 8.5q-76 37 -119 37q-24 0 -59 -22t-47 -44l-13 4q27 37 49 62t59 49t73 24q37 0 119 -36.5t106 -36.5q25 0 52 16t46 41z" />
    <glyph glyph-name="adieresis" unicode="&#xe4;" 
d="M856 606h143q-139 -133 -467 -495q-49 -54 -49 -80q0 -43 49 -43q80 0 260 127.5t273 224.5l20 -12q-62 -65 -158 -144.5t-214.5 -150t-188.5 -70.5q-42 0 -66 25.5t-24 56.5q0 46 19 86h-4q-177 -168 -306 -168q-62 0 -96.5 35.5t-34.5 99.5q0 73 47.5 153t121.5 145.5
t157.5 120t161 84.5t127.5 30q54 0 90.5 -23.5t36.5 -62.5q0 -21 -9 -49h5zM729 535q0 33 -25 52t-55 19q-49 0 -96.5 -26.5t-139.5 -112t-263 -266.5q-89 -93 -89 -150q0 -28 22 -45.5t60 -17.5q69 0 173 70.5t193.5 163t154.5 183.5t65 130zM670 942q0 31 20.5 52.5
t48.5 21.5q27 0 40.5 -20.5t13.5 -53.5q0 -30 -21 -52t-49 -22q-26 0 -39.5 20.5t-13.5 53.5zM948 942q0 30 21 52t49 22q26 0 39.5 -20.5t13.5 -53.5q0 -30 -21 -52t-49 -22q-26 0 -39.5 20.5t-13.5 53.5z" />
    <glyph glyph-name="aring" unicode="&#xe5;" 
d="M856 606h143q-139 -133 -467 -495q-49 -54 -49 -80q0 -43 49 -43q80 0 260 127.5t273 224.5l20 -12q-62 -65 -158 -144.5t-214.5 -150t-188.5 -70.5q-42 0 -66 25.5t-24 56.5q0 46 19 86h-4q-177 -168 -306 -168q-62 0 -96.5 35.5t-34.5 99.5q0 73 47.5 153t121.5 145.5
t157.5 120t161 84.5t127.5 30q54 0 90.5 -23.5t36.5 -62.5q0 -21 -9 -49h5zM729 535q0 33 -25 52t-55 19q-49 0 -96.5 -26.5t-139.5 -112t-263 -266.5q-89 -93 -89 -150q0 -28 22 -45.5t60 -17.5q69 0 173 70.5t193.5 163t154.5 183.5t65 130zM723 967q0 71 48.5 119.5
t119.5 48.5t119.5 -48.5t48.5 -119.5t-48.5 -119.5t-119.5 -48.5t-119.5 48.5t-48.5 119.5zM748 967q0 -59 42.5 -101.5t100.5 -42.5t100.5 42.5t42.5 101.5t-42 101t-101 42t-101 -42t-42 -101z" />
    <glyph glyph-name="ae" unicode="&#xe6;" horiz-adv-x="1138" 
d="M850 606h96l-121 -135l4 -4q90 88 147.5 126t108.5 38q31 0 54.5 -24.5t23.5 -63.5q0 -69 -57.5 -128.5t-140.5 -95.5t-166 -56.5t-144 -20.5q-139 -150 -139 -205q0 -49 82 -49q233 0 639 350v-25q-81 -68 -137.5 -112.5t-129 -94t-131.5 -77.5t-126 -47t-131 -19
q-53 0 -90 24.5t-37 78.5q0 27 12 59.5t25 50.5h-5q-91 -93 -183 -153t-161 -60q-62 0 -96.5 35.5t-34.5 99.5q0 73 47.5 153t121.5 145.5t157.5 120t161 84.5t127.5 30q54 0 90.5 -23.5t36.5 -62.5q0 -38 -25 -74l4 -4zM1114 553q0 24 -13 38.5t-36 14.5
q-52 0 -137.5 -76.5t-251.5 -263.5q78 0 160 32t141.5 77.5t98 94.5t38.5 83zM61 53q0 -32 24.5 -48.5t64.5 -16.5q63 0 165 70.5t192 163t156 183.5t66 130q0 33 -26 52t-60 19q-60 0 -162.5 -75t-193.5 -171.5t-158.5 -186.5t-67.5 -120z" />
    <glyph glyph-name="ccedilla" unicode="&#xe7;" horiz-adv-x="606" 
d="M-131 -266l-12 12q136 31 196 82l-4 4q-8 -4 -24 -4q-21 0 -33 13.5t-12 35.5q0 31 19.5 52.5t49.5 21.5q53 0 53 -57q0 -112 -233 -160zM705 365v-33q-190 -189 -321 -279t-232 -90q-69 0 -104.5 37t-35.5 104q0 97 101.5 223.5t236.5 215t228 88.5q59 0 93 -29.5
t34 -83.5q0 -42 -22.5 -63t-55.5 -21q-30 0 -50 20t-20 46q0 29 17 49t44 20q35 0 46 -16l4 4q-5 49 -78 49q-57 0 -186 -121.5t-238 -263.5q-67 -88 -86 -120t-19 -54q0 -24 24 -41.5t62 -17.5q108 0 238 94.5t320 282.5z" />
    <glyph glyph-name="egrave" unicode="&#xe8;" horiz-adv-x="684" 
d="M795 338v-25q-82 -71 -154.5 -125.5t-160.5 -109.5t-175.5 -85t-165.5 -30q-53 0 -90 24.5t-37 78.5q0 79 66.5 180.5t160.5 185t202.5 141.5t187.5 58q41 0 66.5 -26t25.5 -66q0 -67 -57.5 -126t-140 -94.5t-166 -56t-144.5 -20.5q-139 -150 -139 -205q0 -49 82 -49
q125 0 280 90t359 260zM672 565q0 18 -11.5 29.5t-31.5 11.5q-56 0 -143 -76t-253 -264q78 0 160 31t142 76.5t98.5 98t38.5 93.5zM750 1053h106q22 -148 102 -234l-12 -12q-151 103 -196 246z" />
    <glyph glyph-name="eacute" unicode="&#xe9;" horiz-adv-x="684" 
d="M795 338v-25q-82 -71 -154.5 -125.5t-160.5 -109.5t-175.5 -85t-165.5 -30q-53 0 -90 24.5t-37 78.5q0 79 66.5 180.5t160.5 185t202.5 141.5t187.5 58q41 0 66.5 -26t25.5 -66q0 -67 -57.5 -126t-140 -94.5t-166 -56t-144.5 -20.5q-139 -150 -139 -205q0 -49 82 -49
q125 0 280 90t359 260zM672 565q0 18 -11.5 29.5t-31.5 11.5q-56 0 -143 -76t-253 -264q78 0 160 31t142 76.5t98.5 98t38.5 93.5zM844 1053h110q-40 -78 -111 -142t-151 -104l-8 12q127 105 160 234z" />
    <glyph glyph-name="ecircumflex" unicode="&#xea;" horiz-adv-x="684" 
d="M795 338v-25q-82 -71 -154.5 -125.5t-160.5 -109.5t-175.5 -85t-165.5 -30q-53 0 -90 24.5t-37 78.5q0 79 66.5 180.5t160.5 185t202.5 141.5t187.5 58q41 0 66.5 -26t25.5 -66q0 -67 -57.5 -126t-140 -94.5t-166 -56t-144.5 -20.5q-139 -150 -139 -205q0 -49 82 -49
q125 0 280 90t359 260zM672 565q0 18 -11.5 29.5t-31.5 11.5q-56 0 -143 -76t-253 -264q78 0 160 31t142 76.5t98.5 98t38.5 93.5zM836 1053h102q-4 -7 -18 -29.5t-21 -35t-16.5 -32t-14 -36t-4.5 -31.5q0 -49 33 -74l-8 -8q-32 12 -53 50.5t-21 80.5q-136 -99 -303 -131
l-8 8q196 78 332 238z" />
    <glyph glyph-name="edieresis" unicode="&#xeb;" horiz-adv-x="684" 
d="M795 338v-25q-82 -71 -154.5 -125.5t-160.5 -109.5t-175.5 -85t-165.5 -30q-53 0 -90 24.5t-37 78.5q0 79 66.5 180.5t160.5 185t202.5 141.5t187.5 58q41 0 66.5 -26t25.5 -66q0 -67 -57.5 -126t-140 -94.5t-166 -56t-144.5 -20.5q-139 -150 -139 -205q0 -49 82 -49
q125 0 280 90t359 260zM672 565q0 18 -11.5 29.5t-31.5 11.5q-56 0 -143 -76t-253 -264q78 0 160 31t142 76.5t98.5 98t38.5 93.5zM666 942q0 31 20.5 52.5t48.5 21.5q26 0 39.5 -20.5t13.5 -53.5q0 -31 -20.5 -52.5t-48.5 -21.5q-26 0 -39.5 20.5t-13.5 53.5zM944 942
q0 30 21 52t49 22q26 0 39.5 -20.5t13.5 -53.5q0 -30 -21 -52t-49 -22q-26 0 -39.5 20.5t-13.5 53.5z" />
    <glyph glyph-name="igrave" unicode="&#xec;" horiz-adv-x="532" 
d="M74 217l340 389h131l-359 -401q-88 -99 -116.5 -135t-28.5 -50q0 -32 53 -32q58 0 155 70t303 243q38 32 58 49l15 -14q-200 -175 -334.5 -274t-200.5 -99q-98 0 -98 98q0 61 82 156zM735 1053h107q22 -148 102 -234l-12 -12q-153 103 -197 246z" />
    <glyph glyph-name="iacute" unicode="&#xed;" horiz-adv-x="532" 
d="M74 217l340 389h131l-359 -401q-88 -99 -116.5 -135t-28.5 -50q0 -32 53 -32q58 0 155 70t303 243q38 32 58 49l15 -14q-200 -175 -334.5 -274t-200.5 -99q-98 0 -98 98q0 61 82 156zM778 1053h111q-40 -78 -111 -142t-151 -104l-9 12q127 105 160 234z" />
    <glyph glyph-name="icircumflex" unicode="&#xee;" horiz-adv-x="532" 
d="M74 217l340 389h131l-359 -401q-88 -99 -116.5 -135t-28.5 -50q0 -32 53 -32q58 0 155 70t303 243q38 32 58 49l15 -14q-200 -175 -334.5 -274t-200.5 -99q-98 0 -98 98q0 61 82 156zM795 1053h102q-4 -7 -18 -29.5t-21 -35t-16.5 -32t-14 -36t-4.5 -31.5q0 -49 33 -74
l-8 -8q-32 12 -53 50.5t-21 80.5q-136 -99 -303 -131l-8 8q196 78 332 238z" />
    <glyph glyph-name="idieresis" unicode="&#xef;" horiz-adv-x="532" 
d="M74 217l340 389h131l-359 -401q-88 -99 -116.5 -135t-28.5 -50q0 -32 53 -32q58 0 155 70t303 243q38 32 58 49l15 -14q-200 -175 -334.5 -274t-200.5 -99q-98 0 -98 98q0 61 82 156zM522 942q0 30 21 52t49 22q26 0 39.5 -20.5t13.5 -53.5q0 -30 -21 -52t-49 -22
q-26 0 -39.5 20.5t-13.5 53.5zM801 942q0 31 20.5 52.5t48.5 21.5q27 0 40.5 -20.5t13.5 -53.5q0 -30 -21 -52t-49 -22q-26 0 -39.5 20.5t-13.5 53.5z" />
    <glyph glyph-name="eth" unicode="&#xf0;" horiz-adv-x="835" 
d="M16 86q0 -51 26.5 -74.5t92.5 -23.5q60 0 195.5 112t246.5 246t111 191q0 81 -70 81q-74 0 -181.5 -63t-198.5 -149t-156.5 -177t-65.5 -143zM655 1004l291 53q8 82 8 164q0 161 -32 245h28q34 -69 56 -187.5t22 -205.5l275 49l-13 -24l-266 -49q-22 -194 -99 -377
t-200 -336q49 -37 98 -37q30 0 73 18.5t75 47.5l16 -13q-86 -78 -164 -78q-34 0 -57.5 9.5t-60.5 31.5q-313 -352 -566 -352q-93 0 -144.5 53.5t-51.5 139.5q0 83 63 172.5t157.5 157.5t211.5 112.5t219 44.5q107 0 143 -74q158 240 205 463l-299 -53z" />
    <glyph glyph-name="ntilde" unicode="&#xf1;" horiz-adv-x="909" 
d="M-152 0l562 606h127l-179 -192l4 -4q91 81 189 144.5t160 63.5q54 0 85 -32t31 -86q0 -47 -35.5 -107.5t-86 -116t-101 -107t-86 -93t-35.5 -60.5q0 -12 9 -20t24 -8q50 0 158 81t325 277v-29q-184 -172 -303.5 -263t-179.5 -91q-37 0 -59.5 23.5t-22.5 70.5
q0 52 54 128.5t118 140t118 125t54 86.5t-17.5 41t-47.5 16q-90 0 -302 -176t-419 -418h-144zM1073 975l12 -8q-19 -24 -31.5 -38t-37.5 -37.5t-51 -35.5t-52 -12q-9 0 -19 1.5t-22.5 6.5t-19 7.5t-24 11t-21.5 10.5q-76 37 -119 37q-24 0 -59 -22t-47 -44l-13 4
q27 37 49 62t59 49t73 24q37 0 119 -36.5t106 -36.5q25 0 52 16t46 41z" />
    <glyph glyph-name="ograve" unicode="&#xf2;" horiz-adv-x="835" 
d="M909 365l13 -19q-86 -72 -160 -72q-59 0 -107 41q-145 -180 -271.5 -266t-244.5 -86q-49 0 -88 35.5t-39 89.5q0 72 63 170.5t153 182.5t195 143t183 59q67 0 86 -45q11 8 25 8q41 0 41 -61q0 -49 -29 -112t-61 -97q43 -37 94 -37q29 0 72 18.5t75 47.5zM610 442
q0 39 17 79t41 61q-3 15 -16.5 25.5t-33.5 10.5q-22 0 -49 -13.5t-65 -47t-71 -65t-88 -93t-92.5 -105t-107.5 -124.5q-59 -69 -59 -121q0 -25 19 -43t57 -18q102 0 234 99.5t239 248.5q-25 45 -25 106zM754 1053h106q21 -147 103 -234l-13 -12q-151 103 -196 246z" />
    <glyph glyph-name="oacute" unicode="&#xf3;" horiz-adv-x="835" 
d="M909 365l13 -19q-86 -72 -160 -72q-59 0 -107 41q-145 -180 -271.5 -266t-244.5 -86q-49 0 -88 35.5t-39 89.5q0 72 63 170.5t153 182.5t195 143t183 59q67 0 86 -45q11 8 25 8q41 0 41 -61q0 -49 -29 -112t-61 -97q43 -37 94 -37q29 0 72 18.5t75 47.5zM610 442
q0 39 17 79t41 61q-3 15 -16.5 25.5t-33.5 10.5q-22 0 -49 -13.5t-65 -47t-71 -65t-88 -93t-92.5 -105t-107.5 -124.5q-59 -69 -59 -121q0 -25 19 -43t57 -18q102 0 234 99.5t239 248.5q-25 45 -25 106zM848 1053h110q-40 -78 -111 -142t-151 -104l-8 12q127 105 160 234z
" />
    <glyph glyph-name="ocircumflex" unicode="&#xf4;" horiz-adv-x="835" 
d="M909 365l13 -19q-86 -72 -160 -72q-59 0 -107 41q-145 -180 -271.5 -266t-244.5 -86q-49 0 -88 35.5t-39 89.5q0 72 63 170.5t153 182.5t195 143t183 59q67 0 86 -45q11 8 25 8q41 0 41 -61q0 -49 -29 -112t-61 -97q43 -37 94 -37q29 0 72 18.5t75 47.5zM610 442
q0 39 17 79t41 61q-3 15 -16.5 25.5t-33.5 10.5q-22 0 -49 -13.5t-65 -47t-71 -65t-88 -93t-92.5 -105t-107.5 -124.5q-59 -69 -59 -121q0 -25 19 -43t57 -18q102 0 234 99.5t239 248.5q-25 45 -25 106zM823 1053h103q-4 -7 -18 -29.5t-21 -35t-16.5 -32t-14 -36t-4.5 -31.5
q0 -49 33 -74l-8 -8q-32 12 -53 50.5t-21 80.5q-136 -99 -303 -131l-8 8q195 78 331 238z" />
    <glyph glyph-name="otilde" unicode="&#xf5;" horiz-adv-x="835" 
d="M909 365l13 -19q-86 -72 -160 -72q-59 0 -107 41q-145 -180 -271.5 -266t-244.5 -86q-49 0 -88 35.5t-39 89.5q0 72 63 170.5t153 182.5t195 143t183 59q67 0 86 -45q11 8 25 8q41 0 41 -61q0 -49 -29 -112t-61 -97q43 -37 94 -37q29 0 72 18.5t75 47.5zM610 442
q0 39 17 79t41 61q-3 15 -16.5 25.5t-33.5 10.5q-22 0 -49 -13.5t-65 -47t-71 -65t-88 -93t-92.5 -105t-107.5 -124.5q-59 -69 -59 -121q0 -25 19 -43t57 -18q102 0 234 99.5t239 248.5q-25 45 -25 106zM1063 975l12 -8q-19 -24 -31.5 -38t-37.5 -37.5t-51 -35.5t-52 -12
q-9 0 -19 1.5t-22.5 6.5t-19 7.5t-24 11t-21.5 10.5q-76 37 -119 37q-24 0 -59.5 -22t-47.5 -44l-12 4q27 37 48.5 62t58.5 49t73 24q37 0 119.5 -36.5t106.5 -36.5q25 0 52 16t46 41z" />
    <glyph glyph-name="odieresis" unicode="&#xf6;" horiz-adv-x="835" 
d="M909 365l13 -19q-86 -72 -160 -72q-59 0 -107 41q-145 -180 -271.5 -266t-244.5 -86q-49 0 -88 35.5t-39 89.5q0 72 63 170.5t153 182.5t195 143t183 59q67 0 86 -45q11 8 25 8q41 0 41 -61q0 -49 -29 -112t-61 -97q43 -37 94 -37q29 0 72 18.5t75 47.5zM610 442
q0 39 17 79t41 61q-3 15 -16.5 25.5t-33.5 10.5q-22 0 -49 -13.5t-65 -47t-71 -65t-88 -93t-92.5 -105t-107.5 -124.5q-59 -69 -59 -121q0 -25 19 -43t57 -18q102 0 234 99.5t239 248.5q-25 45 -25 106zM635 942q0 30 21 52t49 22q26 0 39.5 -20.5t13.5 -53.5q0 -30 -21 -52
t-49 -22q-26 0 -39.5 20.5t-13.5 53.5zM913 942q0 30 21 52t49 22q26 0 39.5 -20.5t13.5 -53.5q0 -31 -20.5 -52.5t-48.5 -21.5q-27 0 -40.5 20.5t-13.5 53.5z" />
    <glyph glyph-name="divide" unicode="&#xf7;" horiz-adv-x="1363" 
d="M287 494v49h1036v-49h-1036zM731 950q0 31 21.5 52.5t52.5 21.5t52.5 -21.5t21.5 -52.5t-21.5 -52t-52.5 -21t-52.5 21t-21.5 52zM731 86q0 31 21.5 52.5t52.5 21.5t52.5 -21.5t21.5 -52.5t-21.5 -52.5t-52.5 -21.5t-52.5 21.5t-21.5 52.5z" />
    <glyph glyph-name="oslash" unicode="&#xf8;" horiz-adv-x="835" 
d="M662 596l-529 -604q16 -4 29 -4q102 0 234 99.5t239 248.5q-25 45 -25 106q0 39 17 79t41 61q0 8 -6 14zM113 2l532 610q-12 6 -27 6q-22 0 -49 -13.5t-65 -47t-71 -65t-88 -93t-92.5 -105t-107.5 -124.5q-59 -69 -59 -121q0 -31 27 -47zM-16 -147l104 122
q-33 12 -54.5 42.5t-21.5 70.5q0 72 63 170.5t153 182.5t195 143t183 59q32 0 56 -12l71 82l17 -17l-70 -80q9 -6 12 -18q11 8 25 8q41 0 41 -61q0 -49 -29 -112t-61 -97q43 -37 94 -37q29 0 72 18.5t75 47.5l13 -19q-86 -72 -160 -72q-59 0 -107 41q-145 -180 -271.5 -266
t-244.5 -86q-10 0 -26 4l-113 -131z" />
    <glyph glyph-name="ugrave" unicode="&#xf9;" 
d="M88 254l299 352h135l-379 -428q-80 -92 -80 -137q0 -25 25 -39t68 -14q166 0 483 348l244 270h131l-369 -411q-76 -84 -97.5 -113t-21.5 -53q0 -41 41 -41q54 0 193 97t303 249l14 -19q-213 -183 -331.5 -267.5t-184.5 -84.5q-40 0 -63.5 29.5t-20.5 73.5q0 54 25 90
l-4 4q-115 -102 -199 -149.5t-166 -47.5q-51 0 -91 33t-40 76q0 79 86 182zM752 1053h106q21 -147 103 -234l-13 -12q-151 103 -196 246z" />
    <glyph glyph-name="uacute" unicode="&#xfa;" 
d="M88 254l299 352h135l-379 -428q-80 -92 -80 -137q0 -25 25 -39t68 -14q166 0 483 348l244 270h131l-369 -411q-76 -84 -97.5 -113t-21.5 -53q0 -41 41 -41q54 0 193 97t303 249l14 -19q-213 -183 -331.5 -267.5t-184.5 -84.5q-40 0 -63.5 29.5t-20.5 73.5q0 54 25 90
l-4 4q-115 -102 -199 -149.5t-166 -47.5q-51 0 -91 33t-40 76q0 79 86 182zM903 1053h111q-40 -78 -111 -142t-151 -104l-9 12q127 105 160 234z" />
    <glyph glyph-name="ucircumflex" unicode="&#xfb;" 
d="M88 254l299 352h135l-379 -428q-80 -92 -80 -137q0 -25 25 -39t68 -14q166 0 483 348l244 270h131l-369 -411q-76 -84 -97.5 -113t-21.5 -53q0 -41 41 -41q54 0 193 97t303 249l14 -19q-213 -183 -331.5 -267.5t-184.5 -84.5q-40 0 -63.5 29.5t-20.5 73.5q0 54 25 90
l-4 4q-115 -102 -199 -149.5t-166 -47.5q-51 0 -91 33t-40 76q0 79 86 182zM905 1053h103q-4 -7 -18 -29.5t-21 -35t-16.5 -32t-14 -36t-4.5 -31.5q0 -49 33 -74l-9 -8q-32 12 -52.5 50.5t-20.5 80.5q-136 -99 -303 -131l-9 8q196 78 332 238z" />
    <glyph glyph-name="udieresis" unicode="&#xfc;" 
d="M88 254l299 352h135l-379 -428q-80 -92 -80 -137q0 -25 25 -39t68 -14q166 0 483 348l244 270h131l-369 -411q-76 -84 -97.5 -113t-21.5 -53q0 -41 41 -41q54 0 193 97t303 249l14 -19q-213 -183 -331.5 -267.5t-184.5 -84.5q-40 0 -63.5 29.5t-20.5 73.5q0 54 25 90
l-4 4q-115 -102 -199 -149.5t-166 -47.5q-51 0 -91 33t-40 76q0 79 86 182zM680 942q0 30 21 52t49 22q26 0 39.5 -20.5t13.5 -53.5q0 -30 -21 -52t-49 -22q-26 0 -39.5 20.5t-13.5 53.5zM958 942q0 30 21 52t49 22q26 0 39.5 -20.5t13.5 -53.5q0 -31 -20.5 -52.5
t-48.5 -21.5q-27 0 -40.5 20.5t-13.5 53.5z" />
    <glyph glyph-name="yacute" unicode="&#xfd;" horiz-adv-x="909" 
d="M98 307l262 299h144l-361 -385q-56 -61 -77 -93.5t-21 -59.5q0 -43 66 -43q116 0 283 136t433 445h136l-521 -575l4 -4q80 27 156.5 64.5t157 91t123.5 84.5t125 93l12 -12q-140 -113 -304 -214t-298 -134q-545 -606 -836 -606q-55 0 -87 29.5t-32 76.5q0 212 789 467
l166 180l-4 5q-186 -152 -308 -152q-50 0 -80 27t-30 73q0 92 102 207zM-512 -504q0 -32 27 -55t71 -23q193 0 641 516l-4 5q-89 -30 -156 -55t-160.5 -62.5t-160.5 -73.5t-129.5 -77.5t-95.5 -86t-33 -88.5zM868 1053h111q-40 -78 -111 -142t-151 -104l-8 12
q126 104 159 234z" />
    <glyph glyph-name="thorn" unicode="&#xfe;" horiz-adv-x="835" 
d="M-618 -532l1566 1744h139l-610 -667l4 -4q118 102 209 102q56 0 87.5 -39t31.5 -104q0 -55 -35.5 -127.5t-97 -143t-135.5 -131t-159.5 -98t-160.5 -37.5q-50 0 -73 23.5t-23 56.5q0 29 15 47.5t38 18.5q24 0 41 -14.5t17 -35.5q0 -24 -15 -38.5t-35 -14.5q-18 0 -18 -8
q0 -10 49 -10q68 0 201 121t237.5 261t104.5 195q0 22 -19.5 37.5t-58.5 15.5q-89 0 -236.5 -125t-306.5 -311l-618 -714h-139z" />
    <glyph glyph-name="ydieresis" unicode="&#xff;" horiz-adv-x="909" 
d="M98 307l262 299h144l-361 -385q-56 -61 -77 -93.5t-21 -59.5q0 -43 66 -43q116 0 283 136t433 445h136l-521 -575l4 -4q80 27 156.5 64.5t157 91t123.5 84.5t125 93l12 -12q-140 -113 -304 -214t-298 -134q-545 -606 -836 -606q-55 0 -87 29.5t-32 76.5q0 212 789 467
l166 180l-4 5q-186 -152 -308 -152q-50 0 -80 27t-30 73q0 92 102 207zM-512 -504q0 -32 27 -55t71 -23q193 0 641 516l-4 5q-89 -30 -156 -55t-160.5 -62.5t-160.5 -73.5t-129.5 -77.5t-95.5 -86t-33 -88.5zM678 942q0 30 21 52t49 22q26 0 39.5 -20.5t13.5 -53.5
q0 -30 -21 -52t-49 -22q-26 0 -39.5 20.5t-13.5 53.5zM956 942q0 30 21 52t49 22q26 0 39.5 -20.5t13.5 -53.5q0 -31 -20.5 -52.5t-48.5 -21.5q-27 0 -40.5 20.5t-13.5 53.5z" />
    <glyph glyph-name="dotlessi" unicode="&#x131;" horiz-adv-x="532" 
d="M74 217l340 389h131l-359 -401q-88 -99 -116.5 -135t-28.5 -50q0 -32 53 -32q58 0 155 70t303 243q38 32 58 49l15 -14q-200 -175 -334.5 -274t-200.5 -99q-98 0 -98 98q0 61 82 156z" />
    <glyph glyph-name="Lslash" unicode="&#x141;" horiz-adv-x="1818" 
d="M537 373l428 151q155 231 170 252q-35 -2 -91 -2q-247 0 -367 93.5t-120 238.5q0 156 128.5 240t346.5 84q236 0 443 -123l-17 -13q-214 111 -430 111q-193 0 -295 -88.5t-102 -222.5q0 -140 112 -217.5t318 -77.5q43 0 96 6q30 50 92 128t153.5 171.5t188 173.5
t204.5 134t194 54q66 0 105.5 -32t39.5 -99q0 -70 -57.5 -144.5t-149.5 -137t-204.5 -117.5t-226 -92.5t-210.5 -55.5q-99 -141 -153 -200l4 -4l501 182v-25l-528 -188q-108 -138 -241.5 -277.5t-229.5 -209.5q7 -2 40 -12t43 -13t39.5 -11.5t43 -11.5t40 -9.5t44 -9
t40.5 -6t44.5 -4.5t42.5 -1q122 0 243.5 33.5t211 86.5t145 120.5t55.5 133.5q0 65 -38.5 103.5t-112.5 38.5q-66 0 -134 -52t-104 -108l-20 16q36 59 107.5 113.5t152.5 54.5q87 0 130.5 -46.5t43.5 -119.5q0 -102 -100.5 -195.5t-260 -148.5t-327.5 -55q-68 0 -149.5 16
t-122.5 29t-126 41q-72 -39 -185 -62.5t-214 -23.5q-199 0 -199 109q0 50 43.5 81t141.5 31q159 0 405 -106q20 18 40 37.5t42.5 44.5t38 42.5t41 49.5t37 45.5t40 51.5t35 46.5t38 50.5l34.5 46l-4 4l-407 -148v25zM213 -12q67 0 181 19t188 54q-127 48 -216.5 73.5
t-164.5 25.5q-89 0 -126.5 -25t-37.5 -63q0 -84 176 -84zM2109 1331q0 54 -31.5 82.5t-86.5 28.5q-34 0 -70 -11t-68.5 -27.5t-71 -46.5t-69 -57t-71 -70.5t-68 -75.5t-69 -84t-65.5 -83.5t-66 -86t-62 -81.5q125 27 263.5 81.5t258 123t198 151.5t78.5 156z" />
    <glyph glyph-name="lslash" unicode="&#x142;" horiz-adv-x="532" 
d="M33 492l28 36l293 68q161 195 349.5 386t351 319.5t229.5 128.5q30 0 50.5 -18.5t21.5 -51.5q3 -71 -60.5 -164.5t-164.5 -180.5t-235.5 -160t-262.5 -103q-47 -51 -101 -115h5l368 84l-28 -37l-377 -86q-414 -474 -414 -561q0 -21 15 -35t34 -14t39.5 5t45 17t45.5 24
t52 35t54 40.5t61.5 50.5t63.5 55t71.5 63t75.5 66v-33q-232 -209 -329 -278.5t-162 -69.5q-57 0 -86 34t-29 95q0 116 285 465zM1331 1356q0 49 -43 49q-39 0 -157.5 -102t-256.5 -251t-227 -274q114 29 237.5 95.5t221.5 147t161.5 171.5t63.5 164z" />
    <glyph glyph-name="OE" unicode="&#x152;" horiz-adv-x="2502" 
d="M1835 315l-25 9q70 104 187 191t231 87q213 0 213 -164q0 -83 -55 -167.5t-148.5 -153t-231.5 -111.5t-290 -43q-161 0 -244 74t-83 221q0 104 53.5 206.5t138.5 181t189.5 134.5t207.5 76q-8 40 -8 66q-39 0 -85 11.5t-70 29.5l16 16q55 -29 139 -37q12 86 69 168.5
t139.5 145.5t179.5 111t193.5 73.5t176.5 25.5q168 0 168 -118q0 -69 -71 -137t-179 -119t-230 -91.5t-229 -61.5t-172 -21q-8 -20 -8 -58q32 8 90 8q55 0 103.5 -24.5t48.5 -61.5q0 -32 -24 -48.5t-58 -16.5q-48 0 -98 29t-74 77q-59 -30 -130.5 -83t-144.5 -124.5
t-133.5 -148.5t-98.5 -162t-38 -158q0 -46 27 -79.5t71 -49.5t87.5 -23t88.5 -7q89 0 189.5 30.5t187.5 81t159.5 109t114.5 120t42 109.5q0 52 -28 85t-65 44t-83 11q-198 0 -406 -263zM2224 782q0 28 -44 45t-83 17q-41 0 -82 -13q25 -39 69 -64.5t87 -25.5q53 0 53 41z
M2744 1442q-69 0 -178 -54t-213 -131.5t-195 -164t-130 -150.5q87 2 227 36.5t278.5 88t238 129t99.5 147.5q0 59 -33 79t-94 20zM1339 958h25q0 -99 -51.5 -196t-139 -159t-182.5 -62q-192 0 -192 164q0 82 57 171.5t140.5 156.5t183 111t180.5 44q107 0 172 -65t65 -197
q0 -48 -23.5 -114.5t-66.5 -143t-107 -158.5t-140.5 -160.5t-172.5 -148.5t-198 -123t-221 -84t-238 -31q-180 0 -264 92t-84 244q0 123 67.5 262.5t178.5 266t256 245t295.5 204.5t302.5 137.5t272 51.5q177 0 279 -77t102 -234q0 -63 -25 -121.5t-50 -89t-72 -80.5l-21 13
q69 73 106 134.5t37 139.5q0 145 -91 218t-240 73q-103 0 -245.5 -62t-287 -162t-288 -232t-254.5 -267t-179.5 -272t-68.5 -242q0 -106 71.5 -161.5t202.5 -55.5q151 0 303 52.5t274.5 137t230 189t180 209t114 197t41.5 153.5q0 107 -55.5 172t-157.5 65
q-107 0 -234.5 -73.5t-215 -182.5t-87.5 -202q0 -140 168 -140q73 0 156 64t137.5 157t54.5 172z" />
    <glyph glyph-name="oe" unicode="&#x153;" horiz-adv-x="1216" 
d="M1327 338v-25q-82 -71 -154 -125.5t-160 -109.5t-175.5 -85t-165.5 -30q-53 0 -90 24.5t-37 78.5q0 95 112 227l-14 14q-157 -181 -273.5 -262.5t-230.5 -81.5q-47 0 -87 36t-40 95q0 65 63 159.5t152.5 177t195.5 141.5t183 59q67 0 86 -45q11 8 25 8q41 0 41 -62
q0 -41 -31 -103.5t-68 -102.5q3 -12 13 -17q110 128 254 225t235 97q41 0 66.5 -26t25.5 -66q0 -67 -57.5 -126t-140 -94.5t-166 -56t-144.5 -20.5q-139 -150 -139 -205q0 -49 82 -49q125 0 280 90t359 260zM1204 565q0 18 -11.5 29.5t-31.5 11.5q-56 0 -142 -76t-253 -264
q78 0 160 31t141.5 76.5t98 98t38.5 93.5zM86 43q0 -23 21 -39t59 -16q99 0 229.5 99.5t233.5 244.5q-19 34 -19 102q0 37 17 75.5t41 59.5q-3 15 -16.5 26t-33.5 11q-22 0 -49 -13.5t-65 -47t-71 -65t-88 -93t-92.5 -105t-107.5 -124.5q-59 -69 -59 -115z" />
    <glyph glyph-name="Scaron" unicode="&#x160;" horiz-adv-x="1212" 
d="M-57 127q0 47 24 76.5t66 29.5q40 0 63 -22t23 -59q0 -35 -20 -56.5t-46 -21.5q-20 0 -28.5 -5.5t-8.5 -19.5q0 -23 54 -42t139 -19t168 35.5t146.5 88t132.5 130.5t117.5 145t109.5 150.5t100 130.5q-119 2 -214 22.5t-166 62t-109.5 109.5t-38.5 158t48.5 165
t125.5 122t166 72.5t176 25.5q208 0 422 -111l-13 -16q-215 102 -430 102q-79 0 -158 -25.5t-143.5 -71t-104.5 -114.5t-40 -149q0 -328 491 -328q126 201 321.5 383t381.5 286.5t305 104.5q44 0 69 -26.5t25 -69.5q0 -49 -47.5 -126t-139 -165.5t-208.5 -170.5
t-272.5 -147.5t-313.5 -90.5q-62 -97 -129.5 -187t-160.5 -188t-187.5 -168.5t-208.5 -117t-225 -46.5q-112 0 -187 40.5t-75 123.5zM2073 1372q0 70 -78 70q-73 0 -174 -58t-196.5 -142.5t-196 -191t-171.5 -193.5t-124 -159q147 25 294.5 88.5t260.5 142.5t202 164
t136 159t47 120zM1958 1626h-103q4 7 18 29.5t21 35t16.5 32t14 36t4.5 31.5q0 49 -33 74l9 8q32 -12 52.5 -50.5t20.5 -80.5q136 99 303 131l9 -8q-196 -78 -332 -238z" />
    <glyph glyph-name="scaron" unicode="&#x161;" horiz-adv-x="684" 
d="M291 410l-12 12l172 160q-13 26 -13 49q0 50 27.5 94.5t75.5 44.5q12 0 22 -12.5t10 -24.5q0 -11 -3.5 -23t-11 -25t-13.5 -23t-18 -24.5t-18 -21.5t-19 -21t-15 -17q5 -6 20.5 -27.5t21 -29.5t17.5 -26.5t16.5 -30t11 -29t9 -34.5t2.5 -36q0 -36 -17 -76.5t-34.5 -66
t-46.5 -62.5q101 18 165.5 53.5t129.5 114.5l12 -13q-71 -85 -142 -126t-194 -54q-98 -82 -184.5 -127t-171.5 -45q-76 0 -111.5 38.5t-35.5 104.5q0 72 58 155t122 83q26 0 45.5 -20t19.5 -50q0 -32 -22.5 -54.5t-46.5 -22.5q-30 0 -48 20.5t-18 52.5h-4
q-35 -26 -58.5 -71.5t-23.5 -96.5q0 -48 25 -81t69 -33q48 0 157.5 88t201.5 204t92 183q0 47 -49 102zM612 807h-102q4 7 18 29.5t21 35t16.5 32t14 36t4.5 31.5q0 48 -33 73l8 9q32 -12 53 -50.5t21 -80.5q136 99 303 131l8 -9q-198 -79 -332 -237z" />
    <glyph glyph-name="Ydieresis" unicode="&#x178;" horiz-adv-x="1744" 
d="M1217 438l806 918h144l-1192 -1340q92 11 183 35t185.5 69t165.5 104t116.5 145.5t45.5 187.5q0 16 -8 66h25q8 -66 8 -103q0 -425 -746 -536q-261 -305 -442.5 -435.5t-351.5 -130.5q-66 0 -111 37.5t-45 114.5q0 52 23 96.5t81 90.5t151.5 86t240 78t340.5 71l260 297
l-4 4q-111 -105 -233.5 -176.5t-223.5 -71.5q-90 0 -133 41t-43 107q0 94 102 204l625 693q84 94 84 167q0 62 -34 105.5t-83.5 61.5t-108.5 18q-88 0 -192.5 -37.5t-201 -102.5t-177.5 -145t-129.5 -173t-48.5 -177q0 -75 48.5 -123.5t127.5 -48.5q84 0 185 76t171 188
t70 207q0 61 -12 90h20q17 -70 17 -102q0 -117 -64.5 -229.5t-171.5 -183.5t-223 -71q-95 0 -144 58t-49 135q0 83 37.5 168.5t99 157t141.5 135t164.5 107.5t168 69.5t151.5 25.5q140 0 225.5 -68t85.5 -186q0 -115 -147 -270l-582 -631q-82 -88 -82 -159q0 -43 27.5 -62.5
t71.5 -19.5q64 0 156 43.5t176.5 106t152 121t101.5 97.5zM25 -438q0 -54 36 -86.5t99 -32.5q43 0 81 9.5t83.5 36t88.5 61t108 98.5t129.5 132.5t164.5 178.5l-4 4q-419 -72 -602.5 -168t-183.5 -233zM1487 1761q0 31 20.5 52.5t48.5 21.5q27 0 40.5 -20.5t13.5 -53.5
q0 -30 -21 -51.5t-49 -21.5q-26 0 -39.5 20t-13.5 53zM1765 1761q0 30 21 52t49 22q26 0 39.5 -20.5t13.5 -53.5q0 -30 -20.5 -51.5t-48.5 -21.5q-27 0 -40.5 20.5t-13.5 52.5z" />
    <glyph glyph-name="Zcaron" unicode="&#x17d;" horiz-adv-x="1970" 
d="M1552 778l-24 -37h-328q-44 -48 -129.5 -145.5t-155 -172.5t-129.5 -132q62 -24 156 -73t164 -86t161.5 -66t170.5 -29q60 0 135 29.5t140.5 76t110 111t44.5 127.5q0 78 -45 119t-123 41q-94 0 -180.5 -66t-151.5 -176h-25q56 111 149.5 188.5t207.5 77.5
q82 0 137 -47.5t55 -128.5q0 -73 -41 -141.5t-104.5 -118.5t-139 -88.5t-147 -58t-125.5 -19.5q-43 0 -81.5 5t-93.5 24t-85.5 30t-111.5 51t-113 56.5t-145 75.5q-55 -47 -82.5 -69.5t-83.5 -62t-96.5 -59t-96 -35.5t-108.5 -16q-86 0 -133.5 48t-47.5 132q0 59 27.5 104.5
t73.5 72t99.5 40t111.5 13.5q203 0 389 -74q44 46 187 210.5t206 231.5q-111 0 -225 -16l28 41h217q205 248 439 451q-68 5 -150.5 30t-146.5 51.5t-147 48t-154 21.5q-69 0 -159.5 -49t-172 -125.5t-137.5 -181.5t-56 -205q0 -71 33.5 -113.5t91.5 -42.5q59 0 116.5 37.5
t101.5 96t78.5 126.5t52.5 131.5t18 108.5h25v-49q0 -113 -53 -223t-143.5 -181t-189.5 -71q-72 0 -113.5 45.5t-41.5 140.5q0 96 46 195.5t120.5 179.5t162 144t176.5 99t158 35q64 0 139.5 -22t134 -50t136 -65t127.5 -55q97 82 152.5 119t87.5 37q23 0 39 -14t16 -36
q0 -43 -60.5 -82t-134 -60t-125.5 -21q-62 -60 -131.5 -135t-159 -175.5t-126.5 -140.5q184 0 331 12zM82 139q0 -151 168 -151q167 0 426 229q-242 107 -377 107q-92 0 -154.5 -48.5t-62.5 -136.5zM1933 1380q0 11 -8.5 18t-21.5 7q-28 0 -75.5 -30.5t-139.5 -108.5
q80 0 162.5 36.5t82.5 77.5zM1681 1626h-102q4 7 18 29.5t21 35t16.5 32t14 36t4.5 31.5q0 49 -33 74l8 8q32 -12 53 -50.5t21 -80.5q136 99 303 131l8 -8q-196 -78 -332 -238z" />
    <glyph glyph-name="zcaron" unicode="&#x17e;" horiz-adv-x="835" 
d="M934 332l12 -13q-92 -101 -158.5 -168.5t-146 -127.5t-125.5 -60q-76 0 -211 88q-108 -88 -217 -88q-58 0 -87.5 27.5t-29.5 72.5q0 64 56 111t120 47q85 0 209 -90q93 100 207 242l-2 -2l-4 4q-43 -19 -84 -19q-37 0 -58.5 18t-21.5 44q0 27 35 77.5t35 63.5
q0 10 -5.5 16.5t-13.5 6.5q-23 0 -182 -119l-12 12q123 93 166 116q50 27 86 27q27 0 49 -18.5t22 -38.5q0 -29 -47 -77t-47 -74q0 -29 37 -29q17 0 38.5 7t31.5 18q71 81 105 117t74.5 65.5t70.5 29.5q41 0 41 -40q0 -41 -65.5 -88.5t-221.5 -112.5q-105 -143 -217 -258
q146 -94 209 -94q45 0 127 75t225 232zM852 569q0 25 -25 25q-31 0 -68 -32.5t-143 -147.5l5 -4q231 108 231 159zM-4 68q0 -80 96 -80q102 0 197 75q-132 97 -203 97q-42 0 -66 -29t-24 -63zM721 807h-103q4 7 18 29.5t21 35t16.5 32t14 36t4.5 31.5q0 48 -33 73l9 9
q32 -12 52.5 -50.5t20.5 -80.5q136 99 303 131l9 -9q-198 -79 -332 -237z" />
    <glyph glyph-name="florin" unicode="&#x192;" horiz-adv-x="1060" 
d="M762 780h-287l12 25h291q79 132 147 230.5t151 194t163 156t176 97.5t197 37q109 0 184.5 -51.5t75.5 -159.5q0 -49 -29 -82t-71 -33q-41 0 -69 26t-28 64q0 32 24 57t62 25q56 0 82 -45h4q0 48 -21.5 83.5t-57.5 54.5t-75.5 27.5t-82.5 8.5q-98 0 -192 -62.5
t-213.5 -211.5t-286.5 -416h294l-12 -25h-299q-189 -296 -328.5 -496.5t-261.5 -349.5t-223 -231t-193.5 -120t-193.5 -38q-95 0 -156 53.5t-61 133.5q0 57 31 94t75 37q38 0 64.5 -23.5t26.5 -62.5t-24.5 -62.5t-62.5 -23.5q-54 0 -81 53h-5q0 -77 54.5 -125.5t138.5 -48.5
q67 0 125.5 20t129 75t143.5 138t174.5 224.5t216 318.5t272.5 434z" />
    <glyph glyph-name="circumflex" unicode="&#x2c6;" horiz-adv-x="532" 
d="M582 1053h102q-4 -7 -18 -29.5t-21 -35t-16.5 -32t-14 -36t-4.5 -31.5q0 -49 33 -74l-8 -8q-32 12 -53 50.5t-21 80.5q-136 -99 -303 -131l-8 8q196 78 332 238z" />
    <glyph glyph-name="caron" unicode="&#x2c7;" horiz-adv-x="532" 
d="M635 807h-103q4 7 18 29.5t21 35t16.5 32t14 36t4.5 31.5q0 48 -33 73l9 9q32 -12 52.5 -50.5t20.5 -80.5q136 99 303 131l9 -9q-198 -79 -332 -237z" />
    <glyph glyph-name="uni02C9" unicode="&#x2c9;" horiz-adv-x="532" 
d="M283 901l24 25h443l-25 -25h-442z" />
    <glyph glyph-name="breve" unicode="&#x2d8;" horiz-adv-x="532" 
d="M782 1020h25q-157 -213 -332 -213q-51 0 -80.5 28t-29.5 83q0 69 32 135h21q-29 -67 -29 -92q0 -43 31 -61.5t96 -18.5q80 0 142.5 34t123.5 105z" />
    <glyph glyph-name="dotaccent" unicode="&#x2d9;" horiz-adv-x="532" 
d="M504 942q0 31 20.5 52.5t48.5 21.5q27 0 40.5 -20.5t13.5 -53.5q0 -30 -21 -52t-49 -22q-26 0 -39.5 20.5t-13.5 53.5z" />
    <glyph glyph-name="ring" unicode="&#x2da;" horiz-adv-x="532" 
d="M410 901q0 71 49 119.5t119 48.5t118.5 -48.5t48.5 -119.5t-48.5 -119.5t-118.5 -48.5t-119 48.5t-49 119.5zM434 901q0 -58 42.5 -100.5t101.5 -42.5q58 0 100.5 42t42.5 101t-42.5 101t-100.5 42q-59 0 -101.5 -42.5t-42.5 -100.5z" />
    <glyph glyph-name="ogonek" unicode="&#x2db;" horiz-adv-x="532" 
d="M111 -25h28q-86 -73 -122.5 -124t-36.5 -97q0 -26 16.5 -39.5t40.5 -13.5q38 0 90 41v-41q-43 -30 -69.5 -39.5t-55.5 -9.5q-25 0 -48.5 23t-23.5 55q0 65 51.5 130t129.5 115z" />
    <glyph glyph-name="tilde" unicode="&#x2dc;" horiz-adv-x="532" 
d="M786 975l13 -8q-19 -24 -31.5 -38t-37.5 -37.5t-51 -35.5t-52 -12q-8 0 -17 1.5t-16 3.5t-18.5 7t-17 7.5t-19.5 9t-19 8.5q-76 37 -119 37q-24 0 -59 -22t-47 -44l-12 4q27 37 48.5 62t58.5 49t73 24q37 0 119 -36.5t106 -36.5q25 0 52 16t46 41z" />
    <glyph glyph-name="hungarumlaut" unicode="&#x2dd;" horiz-adv-x="532" 
d="M471 1053h111q-40 -78 -111.5 -142t-151.5 -104l-8 12q127 105 160 234zM752 1053h110q-40 -78 -111 -142t-151 -104l-8 12q127 105 160 234z" />
    <glyph glyph-name="uni03A9" unicode="&#x3a9;" horiz-adv-x="1394" 
d="M1167 190l-202 -190h-406l16 29q16 10 99.5 57.5t130.5 75.5t134.5 85t149.5 105t135 114.5t128 133.5q79 95 125 174t57.5 134t1 96t-44.5 64.5t-78 34.5t-100 11q-128 0 -273.5 -51.5t-316.5 -174t-322 -302.5q-45 -54 -78.5 -105t-52.5 -97.5t-30.5 -82.5t-15 -79
t-4 -67t2 -67t2.5 -59l-35 -29h-397l117 190l27 5q-31 -62 -37.5 -92.5t6.5 -41t51 -10.5h227q-9 30 -13.5 46t-9.5 54t-3 66.5t11.5 75t30 90t56 100t84.5 115.5q208 246 492 398.5t514 152.5q116 0 183.5 -36t83 -102.5t-29 -166.5t-147.5 -223q-72 -86 -168.5 -169
t-210 -158.5t-200 -127t-202.5 -115.5h226q63 0 106 23t158 121z" />
    <glyph glyph-name="uni03BC" unicode="&#x3bc;" 
d="M-621 -532l1008 1138h135l-379 -428q-80 -92 -80 -137q0 -25 25 -39t68 -14q166 0 483 348l244 270h131l-369 -411q-76 -84 -97.5 -113t-21.5 -53q0 -41 41 -41q54 0 193 97t303 249l14 -19q-213 -183 -331.5 -267.5t-184.5 -84.5q-40 0 -63.5 29.5t-20.5 73.5
q0 54 25 90l-4 4q-115 -102 -199 -149.5t-166 -47.5q-42 0 -73.5 19.5t-32.5 56.5l-516 -571h-132z" />
    <glyph glyph-name="pi" unicode="&#x3c0;" horiz-adv-x="993" 
d="M1241 780l14 -16q-23 -19 -44.5 -35t-32.5 -23t-32.5 -20t-29.5 -18q-31 -2 -135 -2q-86 -90 -401 -471q-111 -132 -71 -153q9 -5 26 -5q32 0 66.5 16t94.5 53l4 -20q-141 -104 -237 -104q-60 0 -59 33q1 43 100 161q182 218 432 492q-119 4 -369 4l-39 -45
q-142 -169 -292 -318t-233 -218.5t-109 -82.5q-73 -23 -105 -26l12 18q115 63 267.5 198t259.5 249.5t202 226.5q-63 0 -127 -17.5t-96 -33t-100 -50.5l-2 21q4 2 32.5 18t37 20.5t36.5 19t42.5 20t41.5 17t47 16.5t47 11t52.5 8.5t52.5 2.5q54 0 223 -3t266 -3
q39 0 70.5 11t87.5 48z" />
    <glyph glyph-name="endash" unicode="&#x2013;" horiz-adv-x="1024" 
d="M-20 365l40 49h1024l-40 -49h-1024z" />
    <glyph glyph-name="emdash" unicode="&#x2014;" horiz-adv-x="2048" 
d="M-20 365l40 49h2048l-40 -49h-2048z" />
    <glyph glyph-name="quoteleft" unicode="&#x2018;" horiz-adv-x="454" 
d="M868 1466l17 -16q-107 -59 -152 -119l4 -4q8 8 33 8q21 0 37 -17.5t16 -39.5q0 -37 -27.5 -63.5t-54.5 -26.5q-29 0 -47 16.5t-18 48.5t21 66t54.5 63t61.5 48.5t55 35.5z" />
    <glyph glyph-name="quoteright" unicode="&#x2019;" horiz-adv-x="454" 
d="M692 1196l-16 16q36 13 80.5 44.5t70.5 66.5l-4 4q-8 -8 -32 -8q-21 0 -37.5 17.5t-16.5 39.5q0 37 27.5 63.5t54.5 26.5q29 0 47.5 -16.5t18.5 -48.5q0 -41 -38 -87t-79.5 -74.5t-75.5 -43.5z" />
    <glyph glyph-name="quotesinglbase" unicode="&#x201a;" horiz-adv-x="454" 
d="M111 33q0 37 27.5 63.5t54.5 26.5q29 0 47 -17t18 -49t-21 -66t-54.5 -63t-61.5 -48.5t-55 -35.5l-17 17q107 59 152 119l-4 4q-9 -9 -33 -9q-21 0 -37 18t-16 40z" />
    <glyph glyph-name="quotedblleft" unicode="&#x201c;" horiz-adv-x="684" 
d="M1090 1466l16 -16q-107 -59 -152 -119l4 -4q8 8 33 8q21 0 37 -17.5t16 -39.5q0 -37 -27 -63.5t-54 -26.5q-29 0 -47.5 16.5t-18.5 48.5t21 66t55 63t61.5 48.5t55.5 35.5zM877 1466l16 -16q-107 -59 -152 -119l4 -4q8 8 33 8q21 0 37 -17.5t16 -39.5q0 -37 -27 -63.5
t-54 -26.5q-29 0 -47.5 16.5t-18.5 48.5t21 66t55 63t61.5 48.5t55.5 35.5z" />
    <glyph glyph-name="quotedblright" unicode="&#x201d;" horiz-adv-x="684" 
d="M700 1196l-16 16q36 13 81 44.5t71 66.5l-5 4q-8 -8 -32 -8q-21 0 -37.5 17.5t-16.5 39.5q0 37 27.5 63.5t54.5 26.5q29 0 47.5 -16.5t18.5 -48.5q0 -41 -38 -87t-79.5 -74.5t-75.5 -43.5zM913 1196l-16 16q36 13 81 44.5t71 66.5l-5 4q-8 -8 -32 -8q-21 0 -37.5 17.5
t-16.5 39.5q0 37 27.5 63.5t54.5 26.5q29 0 47.5 -16.5t18.5 -48.5q0 -41 -38 -87t-79.5 -74.5t-75.5 -43.5z" />
    <glyph glyph-name="quotedblbase" unicode="&#x201e;" horiz-adv-x="684" 
d="M57 -156l-16 17q107 59 152 119l-5 4q-9 -9 -32 -9q-21 0 -37.5 18t-16.5 40q0 37 27.5 63.5t54.5 26.5q29 0 47.5 -17t18.5 -49t-21 -66t-55 -63t-61.5 -48.5t-55.5 -35.5zM270 -156l-16 17q107 59 152 119l-5 4q-9 -9 -32 -9q-21 0 -37.5 18t-16.5 40q0 37 27.5 63.5
t54.5 26.5q29 0 47.5 -17t18.5 -49t-21 -66t-55 -63t-61.5 -48.5t-55.5 -35.5z" />
    <glyph glyph-name="dagger" unicode="&#x2020;" horiz-adv-x="1368" 
d="M512 860l61 82q48 -6 96 -9.5t112.5 -5t92 -2t113.5 0t98 0.5q7 9 46 61t49.5 65.5t44.5 59t47.5 65t42 59.5t46 66.5t40 61t41.5 66.5h106q-52 -56 -113.5 -130t-91.5 -111.5t-111.5 -143t-92.5 -119.5q312 0 557 16l-66 -82q-249 17 -520 17q-420 -541 -872 -1184h-111
q373 448 926 1184h-69h-81.5t-79 -0.5t-88 -1.5t-78.5 -3t-79.5 -5t-65.5 -7z" />
    <glyph glyph-name="daggerdbl" unicode="&#x2021;" horiz-adv-x="1368" 
d="M-25 156l62 82q187 -17 512 -17q279 356 520 680q-5 0 -98 0.5t-126.5 0t-106.5 -2t-122.5 -5t-89.5 -9.5l62 82q189 -17 518 -17q246 326 336 480h106q-95 -95 -383 -480q290 0 545 17l-65 -82q-256 16 -519 16q-254 -330 -505 -680q286 0 538 17l-65 -82
q-256 16 -510 16q-234 -317 -346 -479h-111q243 299 383 479q-6 0 -98 0.5t-125 0t-104.5 -2t-119.5 -5t-88 -9.5z" />
    <glyph glyph-name="bullet" unicode="&#x2022;" horiz-adv-x="1024" 
d="M285 518q0 148 104 252t252 104t253 -104t105 -252t-105 -253t-253 -105t-252 105t-104 253z" />
    <glyph glyph-name="ellipsis" unicode="&#x2026;" horiz-adv-x="2048" 
d="M76 37q0 33 27.5 59.5t58.5 26.5q26 0 43.5 -16.5t17.5 -45.5q0 -33 -27.5 -59.5t-58.5 -26.5q-26 0 -43.5 16.5t-17.5 45.5zM758 37q0 33 27.5 59.5t58.5 26.5q26 0 43.5 -16.5t17.5 -45.5q0 -33 -27.5 -59.5t-58.5 -26.5q-26 0 -43.5 16.5t-17.5 45.5zM1440 37
q0 33 27.5 59.5t58.5 26.5q26 0 43.5 -16.5t17.5 -45.5q0 -33 -27.5 -59.5t-58.5 -26.5q-26 0 -43.5 16.5t-17.5 45.5z" />
    <glyph glyph-name="perthousand" unicode="&#x2030;" horiz-adv-x="2428" 
d="M2527 733h25q0 -64 -36 -108t-95 -56q-19 -52 -65.5 -126t-116.5 -155.5t-149 -151.5t-171 -115.5t-174 -45.5q-40 0 -65 26t-25 69q0 90 76.5 215t183 231.5t225 182t195.5 75.5q64 0 110 -37l-16 -16q-23 29 -86 29q-48 0 -160.5 -90.5t-223 -206.5t-195.5 -230
t-85 -157q0 -41 18 -53.5t52 -12.5q73 0 172.5 59t191 146t170.5 185t121 179q-41 0 -65.5 18t-24.5 46q0 26 18.5 42.5t43.5 16.5q29 0 45 -16.5t16 -40.5q0 -22 -8 -41q44 9 71 50t27 89zM1159 1167h25q0 -64 -36 -107.5t-95 -55.5q-19 -52 -65.5 -126t-116.5 -155.5
t-149 -151.5t-171 -115.5t-174 -45.5q-40 0 -65 26t-25 68q0 90 76.5 215t183 231.5t225 182t195.5 75.5q64 0 110 -37l-16 -16q-23 29 -86 29q-48 0 -160.5 -90.5t-223 -206.5t-195.5 -230t-85 -157q0 -41 18 -53.5t52 -12.5q73 0 172.5 59t191 146.5t170.5 185.5t121 179
q-41 0 -65.5 17.5t-24.5 45.5q0 26 18.5 42.5t43.5 16.5q29 0 45 -16.5t16 -40.5q0 -22 -8 -41q44 9 71 50t27 89zM1581 1217h57q-162 -165 -596 -592t-653 -658h-57q149 150 399 392.5t462.5 454.5t387.5 403zM1802 733h25q0 -64 -36 -108t-95 -56q-19 -52 -65.5 -126
t-116.5 -155.5t-149 -151.5t-171 -115.5t-174 -45.5q-40 0 -65 26t-25 69q0 90 76.5 215t183 231.5t225 182t195.5 75.5q64 0 110 -37l-16 -16q-23 29 -86 29q-48 0 -160.5 -90.5t-223 -206.5t-195.5 -230t-85 -157q0 -41 18 -53.5t52 -12.5q73 0 172.5 59t191 146
t170.5 185t121 179q-41 0 -65.5 18t-24.5 46q0 26 18.5 42.5t43.5 16.5q29 0 45 -16.5t16 -40.5q0 -22 -8 -41q44 9 71 50t27 89z" />
    <glyph glyph-name="guilsinglleft" unicode="&#x2039;" horiz-adv-x="606" 
d="M197 0h-17q29 77 29 188t-21 181q206 75 351 229l10 -8q-94 -149 -279 -271q0 -69 -20.5 -158t-52.5 -161z" />
    <glyph glyph-name="guilsinglright" unicode="&#x203a;" horiz-adv-x="606" 
d="M410 598h16q-29 -77 -29 -188t21 -181q-205 -74 -350 -229l-11 8q94 149 279 271q0 69 21 157.5t53 161.5z" />
    <glyph glyph-name="fraction" unicode="&#x2044;" horiz-adv-x="684" 
d="M-125 -57l1233 1241h49l-1233 -1241h-49z" />
    <glyph glyph-name="Euro" unicode="&#x20ac;" horiz-adv-x="1638" 
d="M807 274l-12 17q68 103 159 178q71 59 154 100t149 41q55 0 95.5 -35t40.5 -110q0 -177 -185 -320q-108 -84 -243 -133t-256 -49q-116 0 -179 62t-63 180q0 180 166 416q59 85 100 131h-405l24 24h402q29 33 90 98h-406l25 25h403q222 228 459 371q322 196 565 196
q61 0 104.5 -15t64 -39t29.5 -48t9 -49q0 -102 -90 -156q-33 -20 -70 -20q-54 0 -77 37q-13 23 -13 47q0 50 39 73q26 15 47 15q30 0 52.5 -18t21.5 -48l-2 -35q14 2 31 15t27 38.5t10 49.5q0 42 -25 73q-44 56 -145 56q-117 0 -265 -72q-114 -57 -221 -135
q-179 -130 -375 -336h523l-25 -25h-522q-41 -44 -92 -98h481l-25 -24h-479q-161 -186 -262 -338q-125 -191 -125 -283q0 -52 31 -88q49 -55 158 -55q89 0 204 47q143 61 256 149q83 65 143 141.5t60 145.5q0 40 -16 64q-30 51 -103 51q-56 0 -129.5 -36t-128.5 -81
q-99 -79 -184 -195z" />
    <glyph glyph-name="afii61289" unicode="&#x2113;" horiz-adv-x="659" 
d="M418 154l6 -19q-225 -155 -387 -155q-94 0 -94 61q-3 64 133 229l139 166l-205 -98l4 24l234 115l168 201q203 241 294.5 330.5t198.5 146.5q75 41 131 41q69 0 35 -82q-22 -54 -80 -123q-79 -93 -198 -189t-234 -169.5t-262 -155.5l-131 -155q-192 -233 -127 -279
q20 -14 66 -14q116 0 309 125zM561 786l-217 -258q182 105 344.5 228.5t251.5 228.5q85 101 79 148q-5 23 -34 24q-59 0 -162.5 -91.5t-261.5 -279.5z" />
    <glyph glyph-name="trademark" unicode="&#x2122;" horiz-adv-x="2048" 
d="M829 846v24q34 0 53 10t19 38v524h-74q-47 0 -71.5 -31.5t-24.5 -79.5h-37v135h516v-135h-36q0 46 -27 78.5t-72 32.5h-76v-524q0 -48 72 -48v-24h-242zM1841 846v24q38 0 57 9.5t19 38.5v401h-4l-238 -479h-16l-236 479h-4v-401q0 -29 17.5 -38.5t62.5 -9.5v-24h-199v24
q42 0 62 9.5t20 38.5v444q-13 35 -42.5 57.5t-61.5 22.5v24h166l250 -493l254 493h147v-24q-80 0 -80 -64v-460q0 -28 17 -38t49 -10v-24h-240z" />
    <glyph glyph-name="Omega" unicode="&#x2126;" horiz-adv-x="1394" 
d="M1167 190l-202 -190h-406l16 29q16 10 99.5 57.5t130.5 75.5t134.5 85t149.5 105t135 114.5t128 133.5q79 95 125 174t57.5 134t1 96t-44.5 64.5t-78 34.5t-100 11q-128 0 -273.5 -51.5t-316.5 -174t-322 -302.5q-45 -54 -78.5 -105t-52.5 -97.5t-30.5 -82.5t-15 -79
t-4 -67t2 -67t2.5 -59l-35 -29h-397l117 190l27 5q-31 -62 -37.5 -92.5t6.5 -41t51 -10.5h227q-9 30 -13.5 46t-9.5 54t-3 66.5t11.5 75t30 90t56 100t84.5 115.5q208 246 492 398.5t514 152.5q116 0 183.5 -36t83 -102.5t-29 -166.5t-147.5 -223q-72 -86 -168.5 -169
t-210 -158.5t-200 -127t-202.5 -115.5h226q63 0 106 23t158 121z" />
    <glyph glyph-name="estimated" unicode="&#x212e;" horiz-adv-x="2060" 
d="M2005 545h-1057q-8 0 -8 -6v-320q0 -20 14 -37q79 -81 182.5 -127.5t217.5 -46.5q123 0 232 52.5t188 142.5h94q-89 -105 -224.5 -165.5t-291.5 -60.5q-176 0 -326.5 78t-238 212.5t-87.5 293.5q0 160 87.5 295.5t238 214t326.5 78.5q177 0 327.5 -78.5t238 -214
t87.5 -295.5v-16zM1765 588v321q0 21 -16 37q-80 78 -181.5 123t-213.5 45q-114 0 -216.5 -46t-181.5 -126q-16 -16 -16 -41v-313q0 -10 8 -10h811q6 0 6 10z" />
    <glyph glyph-name="partialdiff" unicode="&#x2202;" horiz-adv-x="937" 
d="M762 723h2q77 0 127.5 -40.5t40.5 -113.5q111 124 141 162q117 135 182 285q16 36 19 74t-7 71.5t-41.5 54.5t-80.5 21q-133 0 -316 -86q-18 -3 -17 11q3 18 30 40q182 80 323 80q117 0 151.5 -57t2.5 -172q-37 -137 -236 -379q-220 -263 -452 -438q-342 -259 -559 -259
q-146 0 -155 95t120 252q68 80 156 151t176 121q95 55 203.5 91t189.5 36zM743 676h-2q-156 0 -338 -103q-167 -95 -313 -268q-63 -77 -87 -141.5t0 -104t97 -39.5q169 0 414 175q71 50 135 104.5t102.5 91.5t122.5 121q9 19 5 47t-14.5 54t-42.5 44.5t-79 18.5z" />
    <glyph glyph-name="Delta" unicode="&#x2206;" horiz-adv-x="1142" 
d="M756 0h-1006l14 16l1420 1119l43 14l-459 -1133zM715 45l415 1018l-1280 -1018h865z" />
    <glyph glyph-name="product" unicode="&#x220f;" horiz-adv-x="1826" 
d="M1776 1128v-26q-53 -3 -80 -6t-47.5 -6.5t-27 -11t-9 -15.5t-2.5 -25v-1061q0 -32 3 -46t20 -26t46 -15.5t90 -6.5v-26h-387v26h1h1h1h1h1q119 8 142 18q26 12 29 52q1 9 1 24v1065q0 32 -12.5 41t-49.5 9h-541q-35 0 -46 -7t-11 -30v-1078v-24.5t2.5 -18.5t6 -15.5
t11.5 -11t18.5 -8.5t29 -6t39.5 -6t53 -4v-26h-369v26q43 3 62.5 4.5t42 6t29.5 9t14.5 16t8.5 24t1 34.5v1061q0 38 -23.5 47.5t-142.5 16.5v26h1094z" />
    <glyph glyph-name="summation" unicode="&#x2211;" horiz-adv-x="1626" 
d="M1581 125l-70 -268h-827v20l430 629l-420 600v22h815q1 -11 10 -102.5t13 -146.5l-29 -7q-16 134 -53 185q-14 20 -49.5 27.5t-136.5 7.5h-482l389 -564l-415 -618h551q45 0 67.5 1t48.5 9.5t38 20t29 39.5t29 61t31 92z" />
    <glyph glyph-name="minus" unicode="&#x2212;" horiz-adv-x="1363" 
d="M287 494v49h1036v-49h-1036z" />
    <glyph glyph-name="uni2215" unicode="&#x2215;" horiz-adv-x="684" 
d="M-125 -57l1233 1241h49l-1233 -1241h-49z" />
    <glyph glyph-name="uni2219" unicode="&#x2219;" horiz-adv-x="454" 
d="M348 586q0 33 27.5 59.5t58.5 26.5q26 0 44 -16.5t18 -45.5q0 -33 -27.5 -59.5t-58.5 -26.5q-26 0 -44 16.5t-18 45.5z" />
    <glyph glyph-name="radical" unicode="&#x221a;" horiz-adv-x="1626" 
d="M1581 1489l-283 -1696l-16 -18l-414 940l-157 -86l-17 37l213 116l371 -856h4l256 1579z" />
    <glyph glyph-name="infinity" unicode="&#x221e;" horiz-adv-x="1640" 
d="M1546 471v-2q0 -112 -75.5 -184t-178.5 -72q-53 0 -107 29t-87.5 59.5t-108.5 106.5l-22 22q-93 -101 -136 -136q-99 -81 -200 -81q-104 0 -177 74.5t-73 177.5q0 109 74 182.5t186 73.5q38 0 77 -14.5t67 -31.5t68.5 -54t59 -56.5t60.5 -64.5q41 46 61.5 68.5t59 57.5
t66.5 51.5t67.5 30t79.5 13.5q111 0 175 -70t64 -180zM637 260h2q35 0 69 12.5t68.5 39t56.5 47t57 57.5t48 49q-6 7 -28 31t-30.5 33t-29.5 31t-33 31.5t-33 26t-37 24.5t-37 17.5t-42 13t-43 3.5q-87 0 -138 -64t-51 -151q0 -84 55.5 -142.5t145.5 -58.5zM1300 676h-2
q-36 0 -72.5 -15t-69.5 -41.5t-58.5 -50.5t-55.5 -56t-43 -44q116 -118 158 -150q75 -59 143 -59q87 0 140 62t53 145q0 98 -55 153.5t-138 55.5z" />
    <glyph glyph-name="integral" unicode="&#x222b;" horiz-adv-x="1239" 
d="M932 88l-31 694q-10 245 9 386.5t66 200t130 58.5q24 0 48.5 -13.5t25.5 -39.5q0 -18 -11.5 -28.5t-29.5 -10.5q-21 0 -40 22.5t-40 22.5q-14 0 -28.5 -8t-30.5 -30.5t-27.5 -57.5t-17.5 -94.5t-3 -134.5l31 -674q3 -118 4 -211t-8 -164t-17.5 -122.5t-25.5 -87
t-32.5 -57.5t-37.5 -34t-41 -16t-43 -4q-36 0 -55.5 16.5t-19.5 40.5q0 16 12 28.5t37 12.5q14 0 33 -22.5t40 -22.5q52 0 81.5 99t21.5 251z" />
    <glyph glyph-name="approxequal" unicode="&#x2248;" horiz-adv-x="1282" 
d="M1155 684l31 -27q-38 -69 -88 -109t-129 -40q-19 0 -37.5 3t-31.5 6t-34.5 12.5t-32 14.5t-39.5 19.5t-42 20.5q-112 59 -179 59q-59 0 -101.5 -34.5t-84.5 -96.5l-33 25q85 151 234 151q30 0 62.5 -9.5t52 -18.5t51.5 -27t41 -23q8 -4 29 -14t29 -14t26 -11t30.5 -10
t30 -5.5t35.5 -2.5q58 0 99 30.5t81 100.5zM1155 408l31 -27q-38 -70 -88 -110t-129 -40q-16 0 -30.5 1.5t-30.5 6t-26.5 8t-30 12.5t-28.5 13.5t-34.5 18t-36.5 18.5q-114 60 -179 60q-59 0 -101.5 -35.5t-84.5 -100.5l-33 27q85 154 232 154q41 0 75.5 -11t82.5 -37.5
t51 -27.5q42 -22 59.5 -30.5t52.5 -18.5t70 -10q57 0 97 30t81 99z" />
    <glyph glyph-name="notequal" unicode="&#x2260;" horiz-adv-x="1421" 
d="M1104 836l-90 -191h313v-47h-336l-133 -274h469v-48h-491l-103 -217l-41 21l92 196h-290v48h315l131 274h-446v47h469l102 211z" />
    <glyph glyph-name="lessequal" unicode="&#x2264;" horiz-adv-x="1509" 
d="M1411 129l-817 391v49l817 392v-60l-756 -352v-4l756 -357v-59zM1415 8h-833v47h833v-47z" />
    <glyph glyph-name="greaterequal" unicode="&#x2265;" horiz-adv-x="1509" 
d="M594 961l817 -392v-49l-817 -391v59l756 355v4l-756 354v60zM1415 8h-831v47h831v-47z" />
    <glyph glyph-name="lozenge" unicode="&#x25ca;" horiz-adv-x="1628" 
d="M1538 543l-377 -668h-43l-379 668l379 674h43zM1481 543l-338 610h-4l-342 -606l342 -608h4z" />
    </font>
</defs>
</svg>
