<?xml version="1.0" standalone="no"?>
<!DOCTYPE svg PUBLIC "-//W3C//DTD SVG 1.1//EN" "http://www.w3.org/Graphics/SVG/1.1/DTD/svg11.dtd" >
<svg xmlns="http://www.w3.org/2000/svg" xmlns:xlink="http://www.w3.org/1999/xlink" version="1.1">
<metadata>
Created by FontForge 20170731 at Sat Feb  4 13:27:47 2017
 By Aleksey,,,
Copyright 2015 The Cormorant Project Authors (github.com/CatharsisFonts/Cormorant)
</metadata>
<defs>
<font id="CormorantGaramond-LightItalic" horiz-adv-x="692" >
  <font-face 
    font-family="Cormorant Garamond Light"
    font-weight="300"
    font-style="italic"
    font-stretch="normal"
    units-per-em="1000"
    panose-1="0 0 4 0 0 0 0 0 0 0"
    ascent="800"
    descent="-200"
    x-height="395"
    cap-height="625"
    bbox="-322 -281 1278.06 899.5"
    underline-thickness="50"
    underline-position="-150"
    slope="-10"
    unicode-range="U+000D-FB06"
  />
<missing-glyph horiz-adv-x="450" 
d="M1 -275l177 1000h285l-176 -1000h-286zM214 556h150l6 32h-60l6 38h61l5 32h-148l-6 -32h57l-5 -38h-60zM192 426h150l5 34h-60l12 69h-90zM227 460l6 35h30l-7 -35h-29zM168 295h90l12 70h60l6 33h-149l-6 -33h59l-6 -36h-60zM159 239h149l17 99h-29l-12 -65h-119z
M135 103h149l20 113h-90l-10 -56h30l5 24h30l-8 -48h-91l14 80h-30zM104 -70h150l20 113h-150zM139 -37l8 48h92l-9 -48h-91zM81 -206h148l6 33h-91l70 47h29l6 34h-148l-6 -34h63l-71 -47z" />
    <glyph glyph-name="f_f.liga" unicode="ff" horiz-adv-x="502" 
d="M610.5 710.5q18.5 -15.5 16.5 -35.5q-5 -26 -31 -26q-11 0 -16.5 7t-12.5 22q-7 16 -15 25t-23 9q-81 0 -120 -273l-9 -63l77 4l28 2q7 0 7 -6q0 -8 -12 -21.5t-22 -11.5l-31.5 4.5t-49.5 4.5l-54 -373q-14 -97 -31.5 -151.5t-43.5 -78.5t-67 -24q-31 0 -45 11.5
t-12 28.5q1 12 10 20t24 8q13 0 19 -7t11 -20q5 -12 10 -17.5t15 -5.5q13 0 21.5 15.5t18 60t22.5 134.5l51 353q1 8 1 20q0 18 -8.5 21.5t-40.5 5.5q-96 3 -143 3l-54 -377q-14 -97 -31.5 -151.5t-43.5 -78.5t-67 -24q-31 0 -45 11.5t-12 28.5q1 12 10 20t24 8q13 0 19 -7
t11 -20q5 -12 10 -17.5t15 -5.5q13 0 21.5 15.5t18 60t22.5 134.5l51 353l2 25q0 20 -11.5 25t-47.5 5q-3 0 -3 5q0 2 1.5 4.5t2.5 2.5q37 0 52.5 10t19.5 35q28 140 81 195t134 55q50 0 88 -23q24 44 56 62.5t81 18.5q32 0 50.5 -15.5zM158 374q113 0 148 1q41 3 52 28
q2 5 4 15q21 123 41 179q-17 24 -42 40.5t-52 16.5q-49 0 -85.5 -55.5t-56.5 -159.5z" />
    <glyph glyph-name="fi" unicode="fi" horiz-adv-x="461" 
d="M433 76q4 0 6 -3.5t0 -5.5q-34 -39 -62 -57.5t-53 -18.5q-17 0 -24 9.5t-7 32.5q0 20 6 56l37 199q3 17 3 29q0 22 -15 30.5t-48 10.5t-120 2l-55 -381q-14 -97 -31.5 -151.5t-43.5 -78.5t-67 -24q-31 0 -45 11.5t-12 28.5q1 12 10 20t24 8q13 0 19 -7t11 -20
q5 -12 10 -17.5t15 -5.5q13 0 21.5 15.5t18 60t22.5 134.5l51 353l2 25q0 20 -11.5 25t-47.5 5q-3 0 -3 5q0 2 1.5 4.5t2.5 2.5q37 0 52.5 10t19.5 35q31 174 88.5 241t133.5 67q46 0 69.5 -18.5t20.5 -44.5q-5 -26 -28 -26q-12 0 -18 7.5t-12 23.5q-8 21 -18.5 32.5
t-33.5 11.5q-54 0 -94.5 -69.5t-60.5 -203.5l-9 -61q85 1 173 6q40 2 49 2q7 0 10 -2t3 -8t-5 -31q-2 -10 -10 -57l-35 -199q-3 -16 -3 -29q0 -32 19 -32q12 0 31 12.5t40 34.5q1 1 3 1z" />
    <glyph glyph-name="fl" unicode="fl" horiz-adv-x="489" 
d="M361 89q-3 -16 -3 -28q0 -33 21 -33q22 0 69 49q2 2 4 2q3 0 5 -3.5t-1 -6.5q-35 -40 -61.5 -59t-50.5 -19q-17 0 -25 10t-8 33q0 15 7 55l103 555q-15 27 -42.5 47.5t-58.5 20.5q-53 0 -92.5 -70.5t-60.5 -202.5l-9 -63q45 1 105 6q7 0 7 -6q0 -8 -12 -21.5t-22 -11.5
l-31.5 4.5t-49.5 4.5l-54 -373q-14 -97 -31.5 -151.5t-43.5 -78.5t-67 -24q-31 0 -45 11.5t-12 28.5q1 12 10 20t24 8q13 0 19 -7t11 -20q5 -12 10 -17.5t15 -5.5q13 0 21.5 15.5t18 60t22.5 134.5l51 353l2 25q0 20 -11.5 25t-47.5 5q-3 0 -3 5q0 2 1.5 4.5t2.5 2.5
q37 0 52.5 10t19.5 35q21 118 53.5 185.5t74.5 95t98 27.5q34 0 57.5 -8t43.5 -22q19 14 26 48q1 4 6.5 2.5t4.5 -3.5z" />
    <glyph glyph-name="f_f_i.liga" unicode="ffi" horiz-adv-x="703" 
d="M675 76q4 0 6 -3.5t0 -5.5q-34 -39 -62 -57.5t-53 -18.5q-17 0 -24 9.5t-7 32.5q0 20 6 56l37 199q3 17 3 29q0 22 -15 30.5t-48 10.5t-120 2l-55 -381q-14 -97 -31.5 -151.5t-43.5 -78.5t-67 -24q-31 0 -45 11.5t-12 28.5q1 12 10 20t24 8q13 0 19 -7t11 -20
q5 -12 10 -17.5t15 -5.5q13 0 21.5 15.5t18 60t22.5 134.5l51 353q1 8 1 20q0 18 -8.5 21.5t-40.5 5.5q-96 3 -143 3l-54 -377q-14 -97 -31.5 -151.5t-43.5 -78.5t-67 -24q-31 0 -45 11.5t-12 28.5q1 12 10 20t24 8q13 0 19 -7t11 -20q5 -12 10 -17.5t15 -5.5
q13 0 21.5 15.5t18 60t22.5 134.5l51 353l2 25q0 20 -11.5 25t-47.5 5q-3 0 -3 5q0 2 1.5 4.5t2.5 2.5q37 0 52.5 10t19.5 35q28 140 81 195t134 55q34 0 57 -8.5t43 -22.5q31 49 68.5 69t80.5 20q46 0 69.5 -18.5t20.5 -44.5q-5 -26 -28 -26q-12 0 -18 7.5t-12 23.5
q-8 21 -18.5 32.5t-33.5 11.5q-54 0 -94.5 -69.5t-60.5 -203.5l-9 -61q85 1 173 6q40 2 49 2q7 0 10 -2t3 -8t-5 -31q-2 -10 -10 -57l-35 -199q-3 -16 -3 -29q0 -32 19 -32q12 0 31 12.5t40 34.5q1 1 3 1zM158 374q113 0 148 1q41 3 52 28q2 5 4 15q18 101 47 169
q-14 26 -42 46.5t-58 20.5q-49 0 -85.5 -55.5t-56.5 -159.5z" />
    <glyph glyph-name="f_f_l.liga" unicode="ffl" horiz-adv-x="731" 
d="M603 89q-3 -16 -3 -28q0 -33 21 -33q22 0 69 49q2 2 4 2q3 0 5 -3.5t-1 -6.5q-35 -40 -61.5 -59t-50.5 -19q-17 0 -25 10t-8 33q0 15 7 55l103 555q-15 27 -42.5 47.5t-58.5 20.5q-53 0 -92.5 -70.5t-60.5 -202.5l-9 -63q45 1 105 6q7 0 7 -6q0 -8 -12 -21.5t-22 -11.5
l-31.5 4.5t-49.5 4.5l-54 -373q-14 -97 -31.5 -151.5t-43.5 -78.5t-67 -24q-31 0 -45 11.5t-12 28.5q1 12 10 20t24 8q13 0 19 -7t11 -20q5 -12 10 -17.5t15 -5.5q13 0 21.5 15.5t18 60t22.5 134.5l51 353q1 8 1 20q0 18 -8.5 21.5t-40.5 5.5q-96 3 -143 3l-54 -377
q-14 -97 -31.5 -151.5t-43.5 -78.5t-67 -24q-31 0 -45 11.5t-12 28.5q1 12 10 20t24 8q13 0 19 -7t11 -20q5 -12 10 -17.5t15 -5.5q13 0 21.5 15.5t18 60t22.5 134.5l51 353l2 25q0 20 -11.5 25t-47.5 5q-3 0 -3 5q0 2 1.5 4.5t2.5 2.5q37 0 52.5 10t19.5 35q28 140 81 195
t134 55q34 0 57 -8t42 -22q29 47 67.5 67.5t86.5 20.5q34 0 57.5 -8t43.5 -22q19 14 26 48q1 4 6.5 2.5t4.5 -3.5zM158 374q113 0 148 1q41 3 52 28q2 5 4 15q20 107 46 170q-14 26 -41.5 46t-57.5 20q-49 0 -85.5 -55.5t-56.5 -159.5z" />
    <glyph glyph-name="Aogonek_acutecomb.liga" unicode="&#x104;&#x301;" horiz-adv-x="599" 
d="M337 678q-4 0 -5 4.5t2 6.5q46 21 122 65l50 28q4 2 20.5 -4t29 -13.5t5.5 -8.5q-62 -15 -113.5 -33.5t-108.5 -43.5zM565 6q0 -6 -4 -6q-32 0 -42 1h-20q-50 0 -89.5 -21t-61.5 -57t-22 -81q0 -40 23.5 -65t66.5 -25q18 0 29 3.5t23 10.5h1q2 0 4 -3t0 -5
q-24 -18 -44 -25.5t-45 -7.5q-47 0 -71.5 21.5t-24.5 61.5q0 18 2 27q7 44 28 75t57 69q29 31 42.5 51t13.5 43q0 7 -1 11l-36 255h-149l-110 -206q-35 -64 -35 -90q0 -18 14.5 -24.5t43.5 -6.5q4 0 3.5 -6t-4.5 -6q-11 0 -43 2q-36 2 -56 2q-21 0 -49 -2t-43 -2q-4 0 -4 6
t4 6q74 0 133 108l283 515q2 3 7 3q9 0 11 -5l81 -537q5 -36 13 -53.5t23 -24t44 -6.5q4 0 4 -6zM255 358h136l-28 200z" />
    <glyph glyph-name="Eogonek_acutecomb.liga" unicode="&#x118;&#x301;" horiz-adv-x="510" 
d="M279 678q-4 0 -5 4.5t2 6.5q46 21 122 65l50 28q4 2 20.5 -4t29 -13.5t5.5 -8.5q-62 -15 -113.5 -33.5t-108.5 -43.5zM509 616l-9 -59q-3 -15 -5 -31.5t-5 -31.5q-1 -4 -7 -3t-5 4q3 18 3 34q0 38 -17 60t-48 22h-99q-33 0 -48.5 -5t-23.5 -19t-13 -44l-37 -208h148
q38 0 55 15t23 54q0 3 6 3q2 0 4.5 -1.5t1.5 -3.5q-5 -30 -8 -42l-6 -35l-6 -39l-8 -52q-1 -4 -7 -3.5t-5 4.5q4 26 4 33q0 26 -14 37t-47 11h-144l-41 -231q-3 -18 -3 -30q0 -22 13.5 -29.5t51.5 -7.5h131q33 0 63 36t47 93q1 3 6.5 2t4.5 -4q-17 -54 -30 -130
q-2 -8 -5.5 -11.5t-10.5 -3.5h-42q-45 -42 -72 -78t-33 -72q-3 -17 -3 -30q0 -33 16.5 -50.5t48.5 -17.5q19 0 31 6.5t31 20.5h1q3 0 5.5 -3.5t0.5 -5.5q-51 -45 -100 -45q-36 0 -55.5 19.5t-19.5 54.5q0 6 2 22q7 40 41 84.5t89 94.5h-345q-2 0 -2 6t2 6q34 0 50 5t24 19
t14 45l82 463q3 18 3 31q0 23 -14 30.5t-52 7.5q-3 0 -3 6t3 6h381q8 0 6 -9z" />
    <glyph glyph-name="IJ_acutecomb.liga" unicode="&#x132;&#x301;" horiz-adv-x="619" 
d="M127 678q-4 0 -5 4.5t2 6.5q46 21 122 65l50 28q4 2 20.5 -4t29 -13.5t5.5 -8.5q-62 -15 -113.5 -33.5t-108.5 -43.5zM478 678q-4 0 -5 4.5t2 6.5q46 21 122 65l50 28q4 2 20.5 -4t29 -13.5t5.5 -8.5q-62 -15 -113.5 -33.5t-108.5 -43.5zM51 275q0 6 4 6q35 0 52 5
t25.5 19.5t13.5 44.5l34 194q4 26 4 31q0 23 -15 30.5t-56 7.5q-4 0 -4 6t4 6l46 -1q38 -2 60 -2q26 0 64 2l41 1q5 0 5 -6t-5 -6q-35 0 -52.5 -6t-26 -20.5t-13.5 -44.5l-34 -192q-4 -19 -4 -34q0 -21 14.5 -28t55.5 -7q4 0 4 -6t-4 -6q-27 0 -42 1l-63 1l-60 -1
q-16 -1 -44 -1q-4 0 -4 6zM186.5 7q-41.5 20 -63.5 51.5t-22 64.5q0 9 1 13q1 14 9.5 22.5t19.5 8.5q19 0 24.5 -13t7.5 -43q2 -46 25 -78t90 -32q155 0 190 199l61 344q3 18 3 30q0 23 -16.5 31t-64.5 8q-3 0 -3 6t3 6l51 -1q42 -2 64 -2t58 2l38 1q4 0 4 -6t-4 -6
q-31 0 -46.5 -6t-23.5 -20.5t-13 -44.5l-49 -284q-23 -129 -90 -200t-157 -71q-55 0 -96.5 20z" />
    <glyph glyph-name="Iogonek_acutecomb.liga" unicode="&#x12e;&#x301;" horiz-adv-x="301" 
d="M360.5 778q16.5 -6 29 -13.5t5.5 -8.5q-62 -15 -113.5 -33.5t-108.5 -43.5l-2 -1q-4 0 -5 4.5t2 6.5q46 21 122 65l50 28q4 2 20.5 -4zM326 619q0 -6 -2 -6q-33 0 -49.5 -6t-24.5 -20.5t-14 -44.5l-82 -461q-3 -19 -3 -31q0 -23 14 -30.5t54 -7.5q2 0 2 -6t-2 -6
q-24 0 -38 1l-56 1q-62 -69 -76 -152q-3 -17 -3 -32q0 -32 13 -49t37 -17q17 0 29 6.5t27 19.5h2q3 0 6 -3t0 -5q-26 -24 -46 -34.5t-42 -10.5q-31 0 -49 19t-18 52q0 88 106 206l-54 -1q-14 -1 -38 -1q-3 0 -3 6t3 6q33 0 49.5 5t24.5 19.5t13 44.5l82 463q4 24 4 31
q0 23 -14.5 30.5t-53.5 7.5q-3 0 -3 6t3 6l41 -1q36 -2 57 -2q27 0 63 2l39 1q2 0 2 -6z" />
    <glyph glyph-name="J_acutecomb.liga" unicode="J&#x301;" horiz-adv-x="271" 
d="M114 678q-4 0 -5.5 4.5t1.5 6.5q40 18 114 60l58 32q4 2 20.5 -3.5t29 -13t5.5 -8.5q-118 -30 -222 -78h-1zM-20 -193q-2 0 -4.5 4.5t-0.5 6.5q45 27 71.5 81.5t42.5 140.5l89 504q3 18 3 30q0 23 -14.5 31t-53.5 8q-2 0 -2 6t2 6l41 -1q36 -2 58 -2q27 0 63 2l38 1
q3 0 3 -6t-3 -6q-33 0 -49.5 -6t-24.5 -20.5t-13 -44.5l-84 -475q-15 -79 -34 -127t-48.5 -78.5t-78.5 -54.5h-1z" />
    <glyph glyph-name="uni01EA0301.liga" unicode="&#x1ea;&#x301;" horiz-adv-x="650" 
d="M349 678q-4 0 -5 4.5t2 6.5q46 21 122 65l50 28q4 2 20.5 -4t29 -13.5t5.5 -8.5q-62 -15 -113.5 -33.5t-108.5 -43.5zM530.5 603.5q50.5 -32.5 76.5 -89t26 -128.5q0 -29 -7 -73q-20 -113 -89.5 -196.5t-162.5 -114.5q-97 -86 -108 -152q-3 -17 -3 -30q0 -33 16.5 -50.5
t48.5 -17.5q19 0 31 6.5t31 20.5h1q3 0 5.5 -3.5t0.5 -5.5q-51 -45 -100 -45q-36 0 -55.5 19.5t-19.5 54.5q0 6 2 22q13 71 126 175q-35 -8 -65 -8q-68 0 -118 32.5t-76 90t-26 129.5q0 36 6 73q16 93 66 166.5t121.5 115t150.5 41.5q71 0 121.5 -32.5zM582 359
q0 74 -26 131.5t-74.5 89.5t-113.5 32q-93 0 -157 -66t-86 -180q-9 -48 -9 -92q0 -74 24.5 -133t72.5 -93t114 -34q90 0 154.5 63.5t89.5 182.5q11 53 11 99z" />
    <glyph glyph-name="aogonek_acutecomb.liga" unicode="&#x105;&#x301;" horiz-adv-x="432" 
d="M384.5 724.5q14.5 4.5 27 6t10.5 -3.5l-142 -254q-1 -3 -6.5 -1t-3.5 4l98 240q2 4 16.5 8.5zM411 78q3 0 5 -3.5t0 -5.5q-32 -33 -57 -56q-43 -42 -67 -68.5t-40 -58t-16 -65.5q0 -31 16.5 -50t48.5 -19q19 0 31 6.5t31 20.5h1q3 0 5.5 -3.5t0.5 -5.5q-52 -45 -100 -45
q-35 0 -55.5 21.5t-20.5 53.5q0 42 33 89t93 104q-10 -2 -16 -2q-16 0 -23 9.5t-7 31.5q0 21 6 57l18 110q-48 -95 -106.5 -153.5t-111.5 -58.5q-60 0 -60 74q0 8 2 30q10 71 52.5 143t99.5 118.5t108 46.5q19 0 36 -7t28 -21q19 16 22 36q1 3 7 2t5 -3l-58 -317
q-3 -16 -3 -28q0 -33 20 -33q22 0 69 49q1 1 3 1zM315 305q0 28 -16 45t-46 17q-37 0 -76 -32t-68.5 -87t-39.5 -121q-3 -21 -3 -38q0 -59 43 -59q37 0 80 38t77.5 97.5t46.5 117.5q2 8 2 22z" />
    <glyph glyph-name="eogonek_acutecomb.liga" unicode="&#x119;&#x301;" horiz-adv-x="346" 
d="M313.5 724.5q14.5 4.5 27 6t10.5 -3.5l-142 -254q-1 -3 -6.5 -1t-3.5 4l98 240q2 4 16.5 8.5zM306 387.5q17 -11.5 17 -31.5q0 -31 -33 -59.5t-88 -50t-118 -31.5q-5 -25 -5 -56q0 -64 28 -101.5t80 -37.5q47 0 84 21l17 12l1 -1l1 1h2q3 0 5.5 -3t-0.5 -6l-21 -15
q-79 -65 -111 -104t-40 -79q-3 -14 -3 -26q0 -31 16 -49.5t49 -18.5q19 0 32.5 7t29.5 20h1q3 0 6 -3.5t0 -5.5q-51 -45 -99 -45q-36 0 -56 20t-20 54q0 6 2 22q7 40 37.5 82t95.5 95q-30 -10 -62 -10q-62 0 -94 40t-32 104q0 23 5 53q9 50 42 100t81.5 82t101.5 32
q31 0 48 -11.5zM266 338q0 18 -15 26t-36 8q-50 0 -82.5 -40t-45.5 -103q74 12 121 36t56 59q2 5 2 14z" />
    <glyph glyph-name="ij_acutecomb.liga" unicode="&#x133;&#x301;" horiz-adv-x="432" 
d="M135.5 472q-5.5 2 -3.5 4l98 240q2 4 16.5 8.5t27 6t10.5 -3.5l-142 -254q-1 -3 -6.5 -1zM456.5 724.5q14.5 4.5 27 6t10.5 -3.5l-142 -254q-1 -3 -6.5 -1t-3.5 4l98 240q2 4 16.5 8.5zM398 388q-1 -6 -6.5 -30.5t-9.5 -45.5l-70 -382q-38 -211 -200 -211q-41 0 -67.5 19
t-26.5 47q0 19 8.5 28t20.5 9q9 0 13.5 -6t11.5 -20q12 -26 28 -41t52 -15q87 0 116 166l56 321q-37 -112 -87.5 -176t-105.5 -64q-33 0 -49 17t-16 54q0 23 8 61l36 178q3 17 3 28q0 33 -21 33q-20 0 -69 -49q-2 -2 -3 -2q-3 0 -5 3.5t0 6.5q36 40 62 59t50 19
q17 0 24.5 -9.5t7.5 -31.5q0 -23 -7 -57l-33 -159q-7 -38 -7 -56q0 -61 47 -61q34 0 70.5 43t69 124.5t52.5 191.5q1 6 7.5 10t18.5 4q21 0 21 -6z" />
    <glyph glyph-name="iogonek_acutecomb.liga" unicode="&#x12f;&#x301;" horiz-adv-x="247" 
d="M200.5 724.5q13.5 4.5 26 6t10.5 -3.5l-97 -253q-1 -3 -6 -1.5t-4 3.5l56 240q1 4 14.5 8.5zM219 78q3 0 5.5 -3.5t0.5 -5.5q-20 -21 -56 -55q-44 -43 -68.5 -69.5t-40.5 -57.5t-16 -66q0 -31 16.5 -50t48.5 -19q16 0 27 5t23 14h1q3 0 6 -3.5t0 -6.5q-49 -36 -88 -36
q-35 0 -55 21t-20 53q0 43 32.5 90.5t92.5 103.5q-10 -2 -16 -2q-16 0 -23.5 10t-7.5 33q0 21 6 55l38 208q3 17 3 28q0 33 -20 33q-12 0 -31.5 -12t-40.5 -35q-1 -1 -3 -1q-3 0 -5.5 3.5t0.5 5.5q34 39 62 57.5t53 18.5q16 0 23 -9.5t7 -31.5q0 -21 -6 -57l-37 -208
q-3 -16 -3 -28q0 -33 20 -33q22 0 69 49q1 1 3 1z" />
    <glyph glyph-name="j_acutecomb.liga" unicode="j&#x301;" horiz-adv-x="237" 
d="M150.5 472q-5.5 2 -3.5 4l98 240q2 4 16.5 8.5t27 6t10.5 -3.5l-142 -254q-1 -3 -6.5 -1zM-64 -264.5q-14 10.5 -14 25.5t9 23.5t21 8.5q10 0 14.5 -7t8.5 -20q5 -14 9.5 -20.5t13.5 -6.5q23 0 38 43t34 154l62 361q3 17 3 28q0 33 -20 33q-12 0 -31 -12t-41 -35
q-1 -1 -3 -1q-3 0 -5.5 3.5t0.5 5.5q34 39 62 57.5t53 18.5q16 0 23 -9.5t7 -31.5q0 -21 -6 -57l-58 -339q-16 -94 -33 -143t-41.5 -69.5t-64.5 -20.5q-27 0 -41 10.5z" />
    <glyph glyph-name="uni01EB0301.liga" unicode="&#x1eb;&#x301;" horiz-adv-x="396" 
d="M344.5 724.5q14.5 4.5 27 6t10.5 -3.5l-142 -254q-1 -3 -6.5 -1t-3.5 4l98 240q2 4 16.5 8.5zM336.5 356.5q33.5 -42.5 33.5 -108.5q0 -26 -6 -55q-14 -67 -52.5 -118t-89.5 -74q-46 -41 -73.5 -78t-33.5 -73q-3 -17 -3 -30q0 -33 16.5 -50.5t48.5 -17.5q19 0 31 6.5
t31 20.5h1q3 0 5.5 -3.5t0.5 -5.5q-51 -45 -100 -45q-36 0 -55.5 19.5t-19.5 54.5q0 75 123 193q-19 -6 -41 -6q-58 0 -91 42t-33 111q0 30 5 54q11 57 41.5 104.5t74.5 74.5t92 27q61 0 94.5 -42.5zM323 203q0 69 -28.5 120.5t-81.5 51.5q-46 0 -83 -38.5t-50 -100.5
q-6 -27 -6 -56q0 -69 30.5 -119t83.5 -50q45 0 81.5 37t48.5 101q5 28 5 54z" />
    <glyph glyph-name="T_T.liga" unicode="TT" horiz-adv-x="1021" 
d="M147 6q0 6 3 6q33 0 49.5 5t24.5 19.5t13 44.5l82 463q3 18 3 30q0 21 -13.5 28t-50.5 7h-28q-40 0 -65 -13t-42.5 -43t-32.5 -84q0 -2 -4.5 -2t-7.5 1.5t0 2.5q8 23 21.5 79t22.5 97q1 3 6.5 2.5t4.5 -3.5q-3 -21 39 -21q80 -3 185 -3q50 0 106 2l56 1q37 0 50 1.5
t17 6.5t8 20q1 3 6.5 2.5t4.5 -4.5q-3 -10 -3 -16q0 -7 8.5 -8.5t38.5 -1.5q72 -3 171 -3q54 0 116 2l62 1q30 0 45 5t21 20q1 3 6.5 2.5t4.5 -4.5q-8 -26 -20.5 -83.5t-18.5 -93.5q-1 -3 -6.5 -2.5t-4.5 4.5q6 35 6 60q0 43 -22 59.5t-78 16.5h-19q-30 0 -45.5 -5.5
t-22.5 -19.5t-12 -42l-83 -461q-4 -26 -4 -33q0 -21 14.5 -28.5t53.5 -7.5q2 0 2 -6t-2 -6q-25 0 -40 1l-61 1l-57 -1q-15 -1 -42 -1q-3 0 -3 6t3 6q33 0 49.5 5t25 19.5t13.5 44.5l81 463q4 24 4 31q0 20 -13.5 27t-48.5 7h-20q-58 0 -79 -6.5t-31 -32t-24 -100.5
q0 -2 -5.5 -1.5t-5.5 2.5q15 73 15 95q0 21 -9.5 30t-29.5 11t-68 2h-18q-30 0 -45.5 -5.5t-23 -19.5t-12.5 -42l-83 -461q-3 -19 -3 -31q0 -23 14 -30.5t54 -7.5q2 0 2 -6t-2 -6q-25 0 -40 1l-61 1l-57 -1q-15 -1 -42 -1q-3 0 -3 6z" />
    <glyph glyph-name="T_h.liga" unicode="Th" horiz-adv-x="924" 
d="M904 79q3 0 5 -3.5t0 -6.5q-36 -40 -62.5 -59t-50.5 -19q-16 0 -23 9.5t-7 31.5q0 21 6 57l29 159q6 33 6 56q0 31 -11 46t-35 15q-33 0 -69.5 -43t-69 -124.5t-52.5 -191.5q-2 -6 -8.5 -10t-17.5 -4q-13 0 -17 1.5t-4 4.5l4 21q2 7 5.5 24t5.5 31l98 527v2q0 6 -7 6
h-188q-28 0 -42.5 -5.5t-21.5 -19.5t-12 -42l-81 -461q-3 -18 -3 -31q0 -23 14 -30.5t54 -7.5q2 0 2 -6t-2 -6q-25 0 -40 1l-61 1l-58 -1q-15 -1 -41 -1q-3 0 -3 6t3 6q33 0 49.5 5t24.5 19.5t13 44.5l82 463q3 18 3 30q0 21 -12.5 28t-46.5 7h-27q-43 0 -69 -13t-44 -42.5
t-33 -84.5q0 -2 -4 -2q-3 0 -6 1.5t-2 2.5q8 24 22.5 83.5t20.5 92.5q1 3 7 2.5t5 -3.5q-3 -21 39 -21q74 -3 183 -3q111 0 190 5q58 2 93.5 26.5t51.5 73.5q0 2 5 2q3 0 5.5 -1.5t1.5 -2.5l-101 -554q36 106 85.5 167t103.5 61q33 0 48.5 -17.5t15.5 -56.5q0 -23 -6 -58
l-33 -178q-3 -16 -3 -28q0 -33 19 -33q22 0 71 49q2 2 3 2z" />
    <glyph glyph-name="f_b.liga" unicode="fb" horiz-adv-x="682" 
d="M642 370.5q22 -28.5 22 -76.5q0 -23 -4 -43q-17 -82 -61 -142t-99.5 -91t-103.5 -31q-43 0 -69 18.5t-26 51.5q0 6 2 18l110 582q-18 23 -42 39t-51 16q-53 0 -92.5 -70.5t-60.5 -202.5l-9 -63q45 1 105 6q7 0 7 -6q0 -8 -12 -21.5t-22 -11.5l-31.5 4.5t-49.5 4.5
l-54 -373q-14 -97 -31.5 -151.5t-43.5 -78.5t-67 -24q-31 0 -45 11.5t-12 28.5q1 12 10 20t24 8q13 0 19 -7t11 -20q5 -12 10 -17.5t15 -5.5q13 0 21.5 15.5t18 60t22.5 134.5l51 353l2 25q0 20 -11.5 25t-47.5 5q-3 0 -3 5q0 2 1.5 4.5t2.5 2.5q37 0 52.5 10t19.5 35
q21 118 53.5 185.5t74.5 95t98 27.5q53 0 95 -26q14 14 20 44q0 3 5 3q3 0 5.5 -1.5t1.5 -2.5l-100 -529q34 82 91.5 133.5t117.5 51.5q38 0 60 -28.5zM610 274q0 39 -16 62t-49 23q-42 0 -80.5 -32.5t-68 -91t-44.5 -134.5l-1 -5q-1 -5 -1 -13q0 -32 24.5 -51.5t64.5 -19.5
q33 0 66.5 25t60 72t38.5 111q6 29 6 54z" />
    <glyph glyph-name="f_f_b.liga" unicode="ffb" horiz-adv-x="924" 
d="M884 370.5q22 -28.5 22 -76.5q0 -23 -4 -43q-17 -82 -61 -142t-99.5 -91t-103.5 -31q-43 0 -69 18.5t-26 51.5q0 6 2 18l110 582q-18 23 -42 39t-51 16q-53 0 -92.5 -70.5t-60.5 -202.5l-9 -63q45 1 105 6q7 0 7 -6q0 -8 -12 -21.5t-22 -11.5l-31.5 4.5t-49.5 4.5
l-54 -373q-14 -97 -31.5 -151.5t-43.5 -78.5t-67 -24q-31 0 -45 11.5t-12 28.5q1 12 10 20t24 8q13 0 19 -7t11 -20q5 -12 10 -17.5t15 -5.5q13 0 21.5 15.5t18 60t22.5 134.5l51 353q1 8 1 20q0 18 -8.5 21.5t-40.5 5.5q-96 3 -143 3l-54 -377q-14 -97 -31.5 -151.5
t-43.5 -78.5t-67 -24q-31 0 -45 11.5t-12 28.5q1 12 10 20t24 8q13 0 19 -7t11 -20q5 -12 10 -17.5t15 -5.5q13 0 21.5 15.5t18 60t22.5 134.5l51 353l2 25q0 20 -11.5 25t-47.5 5q-3 0 -3 5q0 2 1.5 4.5t2.5 2.5q37 0 52.5 10t19.5 35q28 140 81 195t134 55q34 0 57 -8
t42 -22q29 47 67.5 67.5t86.5 20.5q53 0 95 -26q14 14 20 44q0 3 5 3q3 0 5.5 -1.5t1.5 -2.5l-100 -529q34 82 91.5 133.5t117.5 51.5q38 0 60 -28.5zM158 374q113 0 148 1q41 3 52 28q2 5 4 15q20 107 46 170q-14 26 -41.5 46t-57.5 20q-49 0 -85.5 -55.5t-56.5 -159.5z
M852 274q0 39 -16 62t-49 23q-42 0 -80.5 -32.5t-68 -91t-44.5 -134.5l-1 -5q-1 -5 -1 -13q0 -32 24.5 -51.5t64.5 -19.5q33 0 66.5 25t60 72t38.5 111q6 29 6 54z" />
    <glyph glyph-name="f_f_f.liga" unicode="fff" horiz-adv-x="744" 
d="M782.5 710.5q18.5 -15.5 16.5 -35.5q-5 -26 -31 -26q-11 0 -16.5 7t-12.5 22q-7 16 -15 25t-23 9q-26 0 -49 -30q16 -10 33 -27l-30 -53q-6 17 -24 42q-31 -71 -50 -205l-9 -60q27 9 33 39l11 -40l61 4q7 0 7 -6q0 -8 -12 -21.5t-22 -11.5l-40 6l-22 -43q2 16 2 20
q0 13 -5 18t-17 7l-53 -372q-14 -97 -31.5 -151.5t-43.5 -78.5t-67 -24q-31 0 -45 11.5t-12 28.5q1 12 10 20t24 8q13 0 19 -7t11 -20q5 -12 10 -17.5t15 -5.5q13 0 21.5 15.5t18 60t22.5 134.5l51 353q2 10 2 26q0 17 -8 22q-60 2 -115 2l-54 -377q-14 -97 -31.5 -151.5
t-43.5 -78.5t-67 -24q-29 0 -43 10.5t-14 26.5q0 13 9 22t25 9q13 0 19 -7t11 -20q5 -12 10 -17.5t15 -5.5q13 0 21.5 15.5t18 60t22.5 134.5l51 353q1 8 1 20q0 18 -8.5 21.5t-40.5 5.5q-96 3 -143 3l-54 -377q-14 -97 -31.5 -151.5t-43.5 -78.5t-67 -24q-31 0 -45 11.5
t-12 28.5q1 12 10 20t24 8q13 0 19 -7t11 -20q5 -12 10 -17.5t15 -5.5q13 0 21.5 15.5t18 60t22.5 134.5l51 353l2 25q0 20 -11.5 25t-47.5 5q-3 0 -3 5q0 2 1.5 4.5t2.5 2.5q37 0 52.5 10t19.5 35q28 140 81 195t134 55q36 0 59.5 -9t44.5 -24q27 37 61 52.5t77 15.5
q29 0 54 -10q36 33 101 33q32 0 50.5 -15.5zM567.5 573.5q17.5 59.5 40.5 93.5q-29 22 -57 22q-49 0 -85.5 -64.5t-56.5 -185.5l-9 -65h86q23 3 34 13t14 31q16 96 33.5 155.5zM158 374q113 0 148 1q49 3 57 41v2q17 101 47 167q-14 27 -42 48t-59 21q-49 0 -85.5 -55.5
t-56.5 -159.5z" />
    <glyph glyph-name="f_f_h.liga" unicode="ffh" horiz-adv-x="943" 
d="M923 79q3 0 5 -3.5t-1 -6.5q-35 -40 -61.5 -59t-50.5 -19q-16 0 -23 9.5t-7 31.5q0 21 6 57l29 159q6 32 6 55q0 62 -46 62q-33 0 -69 -42t-68.5 -122t-53.5 -187l-1 -8q-1 -6 -7.5 -10t-18.5 -4t-15.5 1.5t-3.5 4.5q1 5 3 16t5 26l7 34l105 570q-15 27 -42.5 47.5
t-58.5 20.5q-53 0 -92.5 -70.5t-60.5 -202.5l-9 -63q45 1 105 6q7 0 7 -6q0 -8 -12 -21.5t-22 -11.5l-31.5 4.5t-49.5 4.5l-54 -373q-14 -97 -31.5 -151.5t-43.5 -78.5t-67 -24q-31 0 -45 11.5t-12 28.5q1 12 10 20t24 8q13 0 19 -7t11 -20q5 -12 10 -17.5t15 -5.5
q13 0 21.5 15.5t18 60t22.5 134.5l51 353q1 8 1 20q0 18 -8.5 21.5t-40.5 5.5q-96 3 -143 3l-54 -377q-14 -97 -31.5 -151.5t-43.5 -78.5t-67 -24q-31 0 -45 11.5t-12 28.5q1 12 10 20t24 8q13 0 19 -7t11 -20q5 -12 10 -17.5t15 -5.5q13 0 21.5 15.5t18 60t22.5 134.5
l51 353l2 25q0 20 -11.5 25t-47.5 5q-3 0 -3 5q0 2 1.5 4.5t2.5 2.5q37 0 52.5 10t19.5 35q28 140 81 195t134 55q34 0 57 -8t42 -22q29 47 67.5 67.5t86.5 20.5q34 0 57.5 -8t43.5 -22q19 14 26 48q1 4 6.5 2.5t4.5 -3.5l-107 -573q36 107 85.5 168t103.5 61
q32 0 47.5 -17.5t15.5 -55.5q0 -24 -6 -59l-32 -178q-3 -16 -3 -28q0 -33 19 -33q23 0 70 49q2 2 4 2zM158 374q113 0 148 1q41 3 52 28q2 5 4 15q20 107 46 170q-14 26 -41.5 46t-57.5 20q-49 0 -85.5 -55.5t-56.5 -159.5z" />
    <glyph glyph-name="f_f_j.liga" unicode="ffj" horiz-adv-x="696" 
d="M662 709.5q24 -16.5 24 -39.5q0 -17 -8 -25t-21 -8q-12 0 -18 7.5t-12 23.5q-8 21 -18.5 32.5t-33.5 11.5q-58 0 -102 -69.5t-64 -203.5l-9 -65q120 1 194 9q31 3 52 3q7 0 9.5 -2t2.5 -7q0 -6 -5 -29l-10 -60l-57 -330q-16 -94 -33 -143t-41.5 -69.5t-64.5 -20.5
q-27 0 -41 10.5t-14 25.5t9 23.5t21 8.5q10 0 14.5 -7t8.5 -20q5 -14 9.5 -20.5t13.5 -6.5q23 0 38 43t34 154l61 352q4 24 4 29q0 19 -12 27.5t-40 11t-89 2.5h-67l-54 -379q-14 -97 -31.5 -151.5t-43.5 -78.5t-67 -24q-31 0 -45 11.5t-12 28.5q1 12 10 20t24 8q13 0 19 -7
t11 -20q5 -12 10 -17.5t15 -5.5q13 0 21.5 15.5t18 60t22.5 134.5l51 353q1 8 1 20q0 18 -8.5 21.5t-40.5 5.5q-96 3 -143 3l-54 -377q-14 -97 -31.5 -151.5t-43.5 -78.5t-67 -24q-31 0 -45 11.5t-12 28.5q1 12 10 20t24 8q13 0 19 -7t11 -20q5 -12 10 -17.5t15 -5.5
q13 0 21.5 15.5t18 60t22.5 134.5l51 353l2 25q0 20 -11.5 25t-47.5 5q-3 0 -3 5q0 2 1.5 4.5t2.5 2.5q37 0 52.5 10t19.5 35q28 140 81 195t134 55q35 0 58 -8.5t45 -23.5q59 90 157 90q43 0 67 -16.5zM410 585q-14 27 -42 48t-59 21q-49 0 -85.5 -55.5t-56.5 -159.5
l-9 -65q113 0 148 1q41 3 52 28q2 5 4 15q19 101 48 167z" />
    <glyph glyph-name="f_f_k.liga" unicode="ffk" horiz-adv-x="905" 
d="M905 76q3 0 5.5 -3.5t-0.5 -5.5q-67 -76 -105 -76q-23 0 -39 14t-39 53l-58 102q-8 15 -15.5 21t-19.5 6q-7 0 -12 -1l-34 -180q-1 -6 -7.5 -10t-18.5 -4t-15.5 1.5t-3.5 4.5q1 5 3 16t5 26l7 34l105 570q-15 27 -42.5 47.5t-58.5 20.5q-53 0 -92.5 -70.5t-60.5 -202.5
l-9 -63q45 1 105 6q7 0 7 -6q0 -8 -12 -21.5t-22 -11.5l-31.5 4.5t-49.5 4.5l-54 -373q-14 -97 -31.5 -151.5t-43.5 -78.5t-67 -24q-31 0 -45 11.5t-12 28.5q1 12 10 20t24 8q13 0 19 -7t11 -20q5 -12 10 -17.5t15 -5.5q13 0 21.5 15.5t18 60t22.5 134.5l51 353q1 8 1 20
q0 18 -8.5 21.5t-40.5 5.5q-96 3 -143 3l-54 -377q-14 -97 -31.5 -151.5t-43.5 -78.5t-67 -24q-31 0 -45 11.5t-12 28.5q1 12 10 20t24 8q13 0 19 -7t11 -20q5 -12 10 -17.5t15 -5.5q13 0 21.5 15.5t18 60t22.5 134.5l51 353l2 25q0 20 -11.5 25t-47.5 5q-3 0 -3 5
q0 2 1.5 4.5t2.5 2.5q37 0 52.5 10t19.5 35q28 140 81 195t134 55q34 0 57 -8t42 -22q29 47 67.5 67.5t86.5 20.5q34 0 57.5 -8t43.5 -22q19 14 26 48q1 4 6.5 2.5t4.5 -3.5l-82 -440q37 44 84 70t94 26q28 0 40.5 -15t12.5 -35q0 -37 -47 -74t-129 -66l67 -119
q20 -35 34.5 -47.5t30.5 -12.5q27 0 71 45q1 1 3 1zM158 374q113 0 148 1q41 3 52 28q2 5 4 15q20 107 46 170q-14 26 -41.5 46t-57.5 20q-49 0 -85.5 -55.5t-56.5 -159.5zM686.5 327.5q-43.5 -44.5 -60.5 -119.5l-2 -9q96 23 137.5 50t51.5 75q2 10 2 15q0 15 -8.5 24
t-22.5 9q-54 0 -97.5 -44.5z" />
    <glyph glyph-name="f_f_thorn.liga" unicode="ff&#xfe;" horiz-adv-x="915" 
d="M870 363.5q25 -29.5 25 -77.5q0 -17 -3 -35q-15 -77 -56 -134.5t-91.5 -87.5t-93.5 -30q-40 0 -60 3l-33 -180q-4 -24 -4 -29q0 -18 9 -26t29 -8q5 0 25 2h1q4 0 5 -5t-3 -6l-169 -25q-3 -1 -4.5 5t2.5 7q24 4 34.5 10t16 20t12.5 48l87 474q-15 -10 -45 -34h-1
q-2 0 -5 3.5t-1 4.5q29 26 55 45l62 336q-16 27 -43.5 47.5t-58.5 20.5q-53 0 -92.5 -70.5t-60.5 -202.5l-9 -63q45 1 105 6q7 0 7 -6q0 -8 -12 -21.5t-22 -11.5l-31.5 4.5t-49.5 4.5l-54 -373q-14 -97 -31.5 -151.5t-43.5 -78.5t-67 -24q-31 0 -45 11.5t-12 28.5
q1 12 10 20t24 8q13 0 19 -7t11 -20q5 -12 10 -17.5t15 -5.5q13 0 21.5 15.5t18 60t22.5 134.5l51 353q1 8 1 20q0 18 -8.5 21.5t-40.5 5.5q-96 3 -143 3l-54 -377q-14 -97 -31.5 -151.5t-43.5 -78.5t-67 -24q-31 0 -45 11.5t-12 28.5q1 12 10 20t24 8q13 0 19 -7t11 -20
q5 -12 10 -17.5t15 -5.5q13 0 21.5 15.5t18 60t22.5 134.5l51 353l2 25q0 20 -11.5 25t-47.5 5q-3 0 -3 5q0 2 1.5 4.5t2.5 2.5q37 0 52.5 10t19.5 35q28 140 81 195t134 55q34 0 57 -8t42 -22q29 47 67.5 67.5t86.5 20.5q34 0 57.5 -8t43.5 -22q19 14 26 48q1 4 6.5 2.5
t4.5 -3.5l-73 -400q82 50 149 50q43 0 68 -29.5zM158 374q113 0 148 1q41 3 52 28q2 5 4 15q20 107 46 170q-14 26 -41.5 46t-57.5 20q-49 0 -85.5 -55.5t-56.5 -159.5zM840 262q0 44 -19 71t-59 27q-48 0 -113 -38l-51 -278q36 -17 79 -17q68 0 105 48t54 145q4 28 4 42z
" />
    <glyph glyph-name="f_f_t.liga" unicode="fft" horiz-adv-x="771" 
d="M771 374q-3 -10 -13.5 -21.5t-20.5 -9.5q-65 9 -107 10l-45 -251q-4 -24 -4 -32q0 -25 12 -37t37 -12q28 0 51 12t49 35h1q3 0 6 -3t1 -5q-44 -38 -77.5 -55t-62.5 -17q-28 0 -46 13.5t-18 44.5q0 14 2 22l43 238q2 10 2 24q0 15 -7 18t-21.5 4t-21.5 1q-96 3 -134 3
l-54 -377q-14 -97 -31.5 -151.5t-43.5 -78.5t-67 -24q-31 0 -45 11.5t-12 28.5q1 12 10 20t24 8q13 0 19 -7t11 -20q5 -12 10 -17.5t15 -5.5q13 0 21.5 15.5t18 60t22.5 134.5l51 353q1 8 1 20q0 18 -8.5 21.5t-40.5 5.5q-96 3 -143 3l-54 -377q-14 -97 -31.5 -151.5
t-43.5 -78.5t-67 -24q-31 0 -45 11.5t-12 28.5q1 12 10 20t24 8q13 0 19 -7t11 -20q5 -12 10 -17.5t15 -5.5q13 0 21.5 15.5t18 60t22.5 134.5l51 353l2 25q0 20 -11.5 25t-47.5 5q-3 0 -3 5q0 2 1.5 4.5t2.5 2.5q37 0 52.5 10t19.5 35q28 140 81 195t134 55q50 0 88 -23
q24 44 56 62.5t81 18.5q32 0 50.5 -15.5t16.5 -35.5q-5 -26 -31 -26q-11 0 -16.5 7t-12.5 22q-7 16 -15 25t-23 9q-81 0 -120 -273l-9 -65q104 0 139 1q36 0 60.5 20.5t31.5 51.5q0 3 8 3q10 0 8 -3l-13 -72q33 1 130 7q9 0 7 -8zM158 374q113 0 148 1q41 3 52 28q2 5 4 15
q21 123 41 179q-17 24 -42 40.5t-52 16.5q-49 0 -85.5 -55.5t-56.5 -159.5z" />
    <glyph glyph-name="f_h.liga" unicode="fh" horiz-adv-x="701" 
d="M681 79q3 0 5 -3.5t-1 -6.5q-35 -40 -61.5 -59t-50.5 -19q-16 0 -23 9.5t-7 31.5q0 21 6 57l29 159q6 32 6 55q0 62 -46 62q-33 0 -69 -42t-68.5 -122t-53.5 -187l-1 -8q-1 -6 -7.5 -10t-18.5 -4t-15.5 1.5t-3.5 4.5q1 5 3 16t5 26l7 34l105 570q-15 27 -42.5 47.5
t-58.5 20.5q-53 0 -92.5 -70.5t-60.5 -202.5l-9 -63q45 1 105 6q7 0 7 -6q0 -8 -12 -21.5t-22 -11.5l-31.5 4.5t-49.5 4.5l-54 -373q-14 -97 -31.5 -151.5t-43.5 -78.5t-67 -24q-31 0 -45 11.5t-12 28.5q1 12 10 20t24 8q13 0 19 -7t11 -20q5 -12 10 -17.5t15 -5.5
q13 0 21.5 15.5t18 60t22.5 134.5l51 353l2 25q0 20 -11.5 25t-47.5 5q-3 0 -3 5q0 2 1.5 4.5t2.5 2.5q37 0 52.5 10t19.5 35q21 118 53.5 185.5t74.5 95t98 27.5q34 0 57.5 -8t43.5 -22q19 14 26 48q1 4 6.5 2.5t4.5 -3.5l-107 -573q36 107 85.5 168t103.5 61
q32 0 47.5 -17.5t15.5 -55.5q0 -24 -6 -59l-32 -178q-3 -16 -3 -28q0 -33 19 -33q23 0 70 49q2 2 4 2z" />
    <glyph glyph-name="f_j.liga" unicode="fj" horiz-adv-x="465" 
d="M420 709.5q24 -16.5 24 -39.5q0 -17 -8 -25t-21 -8q-12 0 -18 7.5t-12 23.5q-8 21 -18.5 32.5t-33.5 11.5q-58 0 -102 -69.5t-64 -203.5l-9 -65q120 1 194 9q31 3 52 3q7 0 9.5 -2t2.5 -7q0 -6 -5 -29l-10 -60l-57 -330q-16 -94 -33 -143t-41.5 -69.5t-64.5 -20.5
q-27 0 -41 10.5t-14 25.5t9 23.5t21 8.5q10 0 14.5 -7t8.5 -20q5 -14 9.5 -20.5t13.5 -6.5q23 0 38 43t34 154l61 352q4 24 4 29q0 19 -12 27.5t-40 11t-89 2.5h-67l-54 -379q-14 -97 -31.5 -151.5t-43.5 -78.5t-67 -24q-31 0 -45 11.5t-12 28.5q1 12 10 20t24 8q13 0 19 -7
t11 -20q5 -12 10 -17.5t15 -5.5q13 0 21.5 15.5t18 60t22.5 134.5l51 353l2 25q0 20 -11.5 25t-47.5 5q-3 0 -3 5q0 2 1.5 4.5t2.5 2.5q37 0 52.5 10t19.5 35q32 174 92.5 241t140.5 67q43 0 67 -16.5z" />
    <glyph glyph-name="f_k.liga" unicode="fk" horiz-adv-x="663" 
d="M663 76q3 0 5.5 -3.5t-0.5 -5.5q-67 -76 -105 -76q-23 0 -39 14t-39 53l-58 102q-8 15 -15.5 21t-19.5 6q-7 0 -12 -1l-34 -180q-1 -6 -7.5 -10t-18.5 -4t-15.5 1.5t-3.5 4.5q1 5 3 16t5 26l7 34l105 570q-15 27 -42.5 47.5t-58.5 20.5q-53 0 -92.5 -70.5t-60.5 -202.5
l-9 -63q45 1 105 6q7 0 7 -6q0 -8 -12 -21.5t-22 -11.5l-31.5 4.5t-49.5 4.5l-54 -373q-14 -97 -31.5 -151.5t-43.5 -78.5t-67 -24q-31 0 -45 11.5t-12 28.5q1 12 10 20t24 8q13 0 19 -7t11 -20q5 -12 10 -17.5t15 -5.5q13 0 21.5 15.5t18 60t22.5 134.5l51 353l2 25
q0 20 -11.5 25t-47.5 5q-3 0 -3 5q0 2 1.5 4.5t2.5 2.5q37 0 52.5 10t19.5 35q21 118 53.5 185.5t74.5 95t98 27.5q34 0 57.5 -8t43.5 -22q19 14 26 48q1 4 6.5 2.5t4.5 -3.5l-82 -440q37 44 84 70t94 26q28 0 40.5 -15t12.5 -35q0 -37 -47 -74t-129 -66l67 -119
q20 -35 34.5 -47.5t30.5 -12.5q27 0 71 45q1 1 3 1zM444.5 327.5q-43.5 -44.5 -60.5 -119.5l-2 -9q96 23 137.5 50t51.5 75q2 10 2 15q0 15 -8.5 24t-22.5 9q-54 0 -97.5 -44.5z" />
    <glyph glyph-name="f_thorn.liga" unicode="f&#xfe;" horiz-adv-x="673" 
d="M628 363.5q25 -29.5 25 -77.5q0 -17 -3 -35q-15 -77 -56 -134.5t-91.5 -87.5t-93.5 -30q-40 0 -60 3l-33 -180q-4 -24 -4 -29q0 -18 9 -26t29 -8q5 0 25 2h1q4 0 5 -5t-3 -6l-169 -25q-3 -1 -4.5 5t2.5 7q24 4 34.5 10t16 20t12.5 48l87 474q-15 -10 -45 -34h-1
q-2 0 -5 3.5t-1 4.5q29 26 55 45l62 336q-16 27 -43.5 47.5t-58.5 20.5q-53 0 -92.5 -70.5t-60.5 -202.5l-9 -63q45 1 105 6q7 0 7 -6q0 -8 -12 -21.5t-22 -11.5l-31.5 4.5t-49.5 4.5l-54 -373q-14 -97 -31.5 -151.5t-43.5 -78.5t-67 -24q-31 0 -45 11.5t-12 28.5
q1 12 10 20t24 8q13 0 19 -7t11 -20q5 -12 10 -17.5t15 -5.5q13 0 21.5 15.5t18 60t22.5 134.5l51 353l2 25q0 20 -11.5 25t-47.5 5q-3 0 -3 5q0 2 1.5 4.5t2.5 2.5q37 0 52.5 10t19.5 35q21 118 53.5 185.5t74.5 95t98 27.5q34 0 57.5 -8t43.5 -22q19 14 26 48q1 4 6.5 2.5
t4.5 -3.5l-73 -400q82 50 149 50q43 0 68 -29.5zM598 262q0 44 -19 71t-59 27q-48 0 -113 -38l-51 -278q36 -17 79 -17q68 0 105 48t54 145q4 28 4 42z" />
    <glyph glyph-name="f_t.liga" unicode="ft" horiz-adv-x="529" 
d="M529 374q-3 -10 -13.5 -21.5t-20.5 -9.5q-65 9 -107 10l-45 -251q-4 -24 -4 -32q0 -25 12 -37t37 -12q28 0 51 12t49 35h1q3 0 6 -3t1 -5q-44 -38 -77.5 -55t-62.5 -17q-28 0 -46 13.5t-18 44.5q0 14 2 22l43 238q2 10 2 24q0 15 -7 18t-21.5 4t-21.5 1q-96 3 -134 3
l-54 -377q-14 -97 -31.5 -151.5t-43.5 -78.5t-67 -24q-31 0 -45 11.5t-12 28.5q1 12 10 20t24 8q13 0 19 -7t11 -20q5 -12 10 -17.5t15 -5.5q13 0 21.5 15.5t18 60t22.5 134.5l51 353l2 25q0 20 -11.5 25t-47.5 5q-3 0 -3 5q0 2 1.5 4.5t2.5 2.5q37 0 52.5 10t19.5 35
q20 123 44 188.5t60 92.5t94 27q32 0 50.5 -15.5t16.5 -35.5q-5 -26 -31 -26q-11 0 -16.5 7t-12.5 22q-7 16 -15 25t-23 9q-81 0 -120 -273l-9 -65q104 0 139 1q36 0 60.5 20.5t31.5 51.5q0 3 8 3q10 0 8 -3l-13 -72q33 1 130 7q9 0 7 -8z" />
    <glyph glyph-name="g_g.liga" unicode="gg" horiz-adv-x="753" 
d="M357 353q-26 0 -53 -9q13 -25 13 -59q0 -22 -4 -39q-9 -44 -34 -78t-59.5 -52t-69.5 -18q-14 0 -26 3q-15 -17 -16 -36q-3 -28 19 -47t70 -43q52 -27 79 -49.5t27 -59.5q0 -5 -2 -19q-13 -55 -72 -91.5t-132 -36.5q-66 0 -103 30t-37 73q0 45 36 77.5t108 73.5
q-34 27 -34 58q0 21 10 36.5t34 37.5q-29 11 -45 38t-16 63q0 17 5 40q12 63 59 104.5t106 41.5q53 0 78 -38q27 18 55.5 28.5t52.5 10.5q5 0 5 -11t-4.5 -24t-8.5 -12q-17 7 -41 7zM764 382q0 -11 -4.5 -23t-8.5 -10q-21 9 -48 9q-9 0 -29 -2q21 -27 21 -70q0 -17 -5 -40
q-9 -44 -34.5 -77.5t-60 -52t-69.5 -18.5q-14 0 -25 3q-14 -16 -17 -36q-3 -29 20.5 -48t73.5 -43q55 -26 83.5 -49.5t28.5 -61.5q0 -41 -29 -74t-76.5 -51.5t-99.5 -18.5q-62 0 -101 29t-39 73q0 6 2 20q7 35 36.5 63t96.5 69q-18 13 -27.5 26.5t-9.5 30.5q0 7 1 11
q3 18 13.5 32t30.5 32q-29 11 -45 38t-16 63q0 17 5 40q12 63 58.5 104.5t105.5 41.5q39 0 67 -23q51 24 96 24q5 0 5 -11zM271 252q0 50 -19.5 86.5t-56.5 36.5q-32 0 -59.5 -28.5t-34.5 -70.5q-4 -17 -4 -39q0 -49 20.5 -85t57.5 -36q32 0 58 26.5t35 71.5q3 18 3 38z
M647 252q0 50 -19.5 86.5t-55.5 36.5q-32 0 -59.5 -28t-35.5 -71q-4 -26 -4 -39q0 -49 21 -85t58 -36q32 0 58 26.5t34 71.5q3 18 3 38zM620.5 -107.5q-28.5 23.5 -82.5 49.5q-29 14 -48 25q-5 -3 -35.5 -22.5t-46 -43.5t-15.5 -51q0 -44 38 -74t99 -30q57 0 88 22.5
t31 62.5q0 38 -28.5 61.5zM234.5 -110q-26.5 23 -76.5 49q-40 22 -47 27q-37 -21 -57 -34.5t-34.5 -34.5t-14.5 -49q0 -42 37 -72t100 -30q56 0 87.5 22.5t31.5 63.5q0 35 -26.5 58z" />
    <glyph glyph-name="g_y.liga" unicode="gy" horiz-adv-x="792" 
d="M753 345q0 -84 -66 -236.5t-152.5 -271t-143.5 -118.5q-15 0 -25.5 7.5t-10.5 22.5q0 29 36 29q30 0 61.5 13.5t52.5 34.5q20 19 56 74q-5 131 -28.5 236t-60 164.5t-79.5 59.5t-79 -41q4 -20 4 -33q0 -17 -5 -40q-9 -43 -34 -77t-59.5 -52.5t-69.5 -18.5q-13 0 -25 3
q-16 -17 -17 -36q-3 -26 20 -45t71 -43q56 -29 85 -53.5t29 -61.5q0 -36 -28 -69t-76 -53.5t-103 -20.5q-69 0 -109 29.5t-40 72.5q0 44 36.5 77.5t109.5 75.5q-36 26 -36 56q0 19 10.5 35.5t33.5 39.5q-29 11 -45 38t-16 63q0 17 5 40q12 63 59 104.5t106 41.5q33 0 56 -16
t34 -43q23 29 52 45.5t53 16.5q52 0 93.5 -60.5t66 -158t29.5 -205.5q36 65 63 130t36 115q5 32 5 49q0 36 -13 75q-6 22 -6 28q0 13 8 20.5t22 7.5q34 0 34 -51zM271 252q0 50 -19.5 86.5t-56.5 36.5q-32 0 -59.5 -28.5t-34.5 -70.5q-4 -17 -4 -39q0 -49 20.5 -85t57.5 -36
q32 0 58 26.5t35 71.5q3 18 3 38zM245 -113.5q-28 23.5 -81 51.5q-30 15 -51 29q-36 -20 -57 -34.5t-36 -36t-15 -49.5q0 -44 41 -72.5t107 -28.5q56 0 88 23t32 59q0 35 -28 58.5z" />
    <glyph glyph-name="g_yacute.liga" unicode="g&#xfd;" horiz-adv-x="792" 
d="M591.5 472q-5.5 2 -3.5 4l98 240q2 4 16.5 8.5t27 6t10.5 -3.5l-142 -254q-1 -3 -6.5 -1zM753 345q0 -84 -66 -236.5t-152.5 -271t-143.5 -118.5q-15 0 -25.5 7.5t-10.5 22.5q0 29 36 29q30 0 61.5 13.5t52.5 34.5q20 19 56 74q-5 131 -28.5 236t-60 164.5t-79.5 59.5
t-79 -41q4 -20 4 -33q0 -17 -5 -40q-9 -43 -34 -77t-59.5 -52.5t-69.5 -18.5q-13 0 -25 3q-16 -17 -17 -36q-3 -26 20 -45t71 -43q56 -29 85 -53.5t29 -61.5q0 -36 -28 -69t-76 -53.5t-103 -20.5q-69 0 -109 29.5t-40 72.5q0 44 36.5 77.5t109.5 75.5q-36 26 -36 56
q0 19 10.5 35.5t33.5 39.5q-29 11 -45 38t-16 63q0 17 5 40q12 63 59 104.5t106 41.5q33 0 56 -16t34 -43q23 29 52 45.5t53 16.5q52 0 93.5 -60.5t66 -158t29.5 -205.5q36 65 63 130t36 115q5 32 5 49q0 36 -13 75q-6 22 -6 28q0 13 8 20.5t22 7.5q34 0 34 -51zM271 252
q0 50 -19.5 86.5t-56.5 36.5q-32 0 -59.5 -28.5t-34.5 -70.5q-4 -17 -4 -39q0 -49 20.5 -85t57.5 -36q32 0 58 26.5t35 71.5q3 18 3 38zM245 -113.5q-28 23.5 -81 51.5q-30 15 -51 29q-36 -20 -57 -34.5t-36 -36t-15 -49.5q0 -44 41 -72.5t107 -28.5q56 0 88 23t32 59
q0 35 -28 58.5z" />
    <glyph glyph-name="g_ycircumflex.liga" unicode="g&#x177;" horiz-adv-x="792" 
d="M537 473q-3 0 -5.5 1.5t-1.5 3.5l101 249q3 5 11 5t8 -5l14 -249q0 -3 -6 -3.5t-6 2.5l-26 166l-86 -169q0 -1 -3 -1zM753 345q0 -84 -66 -236.5t-152.5 -271t-143.5 -118.5q-15 0 -25.5 7.5t-10.5 22.5q0 29 36 29q30 0 61.5 13.5t52.5 34.5q20 19 56 74
q-5 131 -28.5 236t-60 164.5t-79.5 59.5t-79 -41q4 -20 4 -33q0 -17 -5 -40q-9 -43 -34 -77t-59.5 -52.5t-69.5 -18.5q-13 0 -25 3q-16 -17 -17 -36q-3 -26 20 -45t71 -43q56 -29 85 -53.5t29 -61.5q0 -36 -28 -69t-76 -53.5t-103 -20.5q-69 0 -109 29.5t-40 72.5
q0 44 36.5 77.5t109.5 75.5q-36 26 -36 56q0 19 10.5 35.5t33.5 39.5q-29 11 -45 38t-16 63q0 17 5 40q12 63 59 104.5t106 41.5q33 0 56 -16t34 -43q23 29 52 45.5t53 16.5q52 0 93.5 -60.5t66 -158t29.5 -205.5q36 65 63 130t36 115q5 32 5 49q0 36 -13 75q-6 22 -6 28
q0 13 8 20.5t22 7.5q34 0 34 -51zM271 252q0 50 -19.5 86.5t-56.5 36.5q-32 0 -59.5 -28.5t-34.5 -70.5q-4 -17 -4 -39q0 -49 20.5 -85t57.5 -36q32 0 58 26.5t35 71.5q3 18 3 38zM245 -113.5q-28 23.5 -81 51.5q-30 15 -51 29q-36 -20 -57 -34.5t-36 -36t-15 -49.5
q0 -44 41 -72.5t107 -28.5q56 0 88 23t32 59q0 35 -28 58.5z" />
    <glyph glyph-name="g_ydieresis.liga" unicode="g&#xff;" horiz-adv-x="792" 
d="M511.5 491q-10.5 10 -10.5 28t10.5 28t28.5 10q19 0 29 -10t10 -28t-10 -28t-29 -10q-18 0 -28.5 10zM659.5 491q-10.5 10 -10.5 28t10.5 28t29.5 10t29 -10t10 -28t-10 -28t-29 -10t-29.5 10zM753 345q0 -84 -66 -236.5t-152.5 -271t-143.5 -118.5q-15 0 -25.5 7.5
t-10.5 22.5q0 29 36 29q30 0 61.5 13.5t52.5 34.5q20 19 56 74q-5 131 -28.5 236t-60 164.5t-79.5 59.5t-79 -41q4 -20 4 -33q0 -17 -5 -40q-9 -43 -34 -77t-59.5 -52.5t-69.5 -18.5q-13 0 -25 3q-16 -17 -17 -36q-3 -26 20 -45t71 -43q56 -29 85 -53.5t29 -61.5
q0 -36 -28 -69t-76 -53.5t-103 -20.5q-69 0 -109 29.5t-40 72.5q0 44 36.5 77.5t109.5 75.5q-36 26 -36 56q0 19 10.5 35.5t33.5 39.5q-29 11 -45 38t-16 63q0 17 5 40q12 63 59 104.5t106 41.5q33 0 56 -16t34 -43q23 29 52 45.5t53 16.5q52 0 93.5 -60.5t66 -158
t29.5 -205.5q36 65 63 130t36 115q5 32 5 49q0 36 -13 75q-6 22 -6 28q0 13 8 20.5t22 7.5q34 0 34 -51zM271 252q0 50 -19.5 86.5t-56.5 36.5q-32 0 -59.5 -28.5t-34.5 -70.5q-4 -17 -4 -39q0 -49 20.5 -85t57.5 -36q32 0 58 26.5t35 71.5q3 18 3 38zM245 -113.5
q-28 23.5 -81 51.5q-30 15 -51 29q-36 -20 -57 -34.5t-36 -36t-15 -49.5q0 -44 41 -72.5t107 -28.5q56 0 88 23t32 59q0 35 -28 58.5z" />
    <glyph glyph-name="g_ygrave.liga" unicode="g&#x1ef3;" horiz-adv-x="792" 
d="M572 727q-1 5 10.5 3.5t23.5 -6t12 -8.5v-240q0 -2 -4.5 -3t-4.5 2zM753 345q0 -84 -66 -236.5t-152.5 -271t-143.5 -118.5q-15 0 -25.5 7.5t-10.5 22.5q0 29 36 29q30 0 61.5 13.5t52.5 34.5q20 19 56 74q-5 131 -28.5 236t-60 164.5t-79.5 59.5t-79 -41q4 -20 4 -33
q0 -17 -5 -40q-9 -43 -34 -77t-59.5 -52.5t-69.5 -18.5q-13 0 -25 3q-16 -17 -17 -36q-3 -26 20 -45t71 -43q56 -29 85 -53.5t29 -61.5q0 -36 -28 -69t-76 -53.5t-103 -20.5q-69 0 -109 29.5t-40 72.5q0 44 36.5 77.5t109.5 75.5q-36 26 -36 56q0 19 10.5 35.5t33.5 39.5
q-29 11 -45 38t-16 63q0 17 5 40q12 63 59 104.5t106 41.5q33 0 56 -16t34 -43q23 29 52 45.5t53 16.5q52 0 93.5 -60.5t66 -158t29.5 -205.5q36 65 63 130t36 115q5 32 5 49q0 36 -13 75q-6 22 -6 28q0 13 8 20.5t22 7.5q34 0 34 -51zM271 252q0 50 -19.5 86.5t-56.5 36.5
q-32 0 -59.5 -28.5t-34.5 -70.5q-4 -17 -4 -39q0 -49 20.5 -85t57.5 -36q32 0 58 26.5t35 71.5q3 18 3 38zM245 -113.5q-28 23.5 -81 51.5q-30 15 -51 29q-36 -20 -57 -34.5t-36 -36t-15 -49.5q0 -44 41 -72.5t107 -28.5q56 0 88 23t32 59q0 35 -28 58.5z" />
    <glyph glyph-name="uni00670233.liga" unicode="g&#x233;" horiz-adv-x="792" 
d="M491.5 484q-1.5 4 -1.5 9q0 13 5 13h240q5 0 5 -13t-5 -13h-240q-2 0 -3.5 4zM753 345q0 -84 -66 -236.5t-152.5 -271t-143.5 -118.5q-15 0 -25.5 7.5t-10.5 22.5q0 29 36 29q30 0 61.5 13.5t52.5 34.5q20 19 56 74q-5 131 -28.5 236t-60 164.5t-79.5 59.5t-79 -41
q4 -20 4 -33q0 -17 -5 -40q-9 -43 -34 -77t-59.5 -52.5t-69.5 -18.5q-13 0 -25 3q-16 -17 -17 -36q-3 -26 20 -45t71 -43q56 -29 85 -53.5t29 -61.5q0 -36 -28 -69t-76 -53.5t-103 -20.5q-69 0 -109 29.5t-40 72.5q0 44 36.5 77.5t109.5 75.5q-36 26 -36 56q0 19 10.5 35.5
t33.5 39.5q-29 11 -45 38t-16 63q0 17 5 40q12 63 59 104.5t106 41.5q33 0 56 -16t34 -43q23 29 52 45.5t53 16.5q52 0 93.5 -60.5t66 -158t29.5 -205.5q36 65 63 130t36 115q5 32 5 49q0 36 -13 75q-6 22 -6 28q0 13 8 20.5t22 7.5q34 0 34 -51zM271 252q0 50 -19.5 86.5
t-56.5 36.5q-32 0 -59.5 -28.5t-34.5 -70.5q-4 -17 -4 -39q0 -49 20.5 -85t57.5 -36q32 0 58 26.5t35 71.5q3 18 3 38zM245 -113.5q-28 23.5 -81 51.5q-30 15 -51 29q-36 -20 -57 -34.5t-36 -36t-15 -49.5q0 -44 41 -72.5t107 -28.5q56 0 88 23t32 59q0 35 -28 58.5z" />
    <glyph glyph-name="uni00671EF9.liga" unicode="g&#x1ef9;" horiz-adv-x="792" 
d="M485 482q-3 0 -5 2.5t0 4.5q16 22 38.5 39.5t45.5 17.5q14 0 31.5 -4.5t20.5 -5.5q44 -14 74 -14q17 0 27.5 7t21.5 20h1q3 0 5.5 -2.5t0.5 -4.5q-26 -34 -43 -46t-35 -12q-15 0 -31 3.5t-32 8.5t-34 9t-35 4q-16 0 -24.5 -5.5t-15 -12l-9.5 -9.5h-2zM753 345
q0 -84 -66 -236.5t-152.5 -271t-143.5 -118.5q-15 0 -25.5 7.5t-10.5 22.5q0 29 36 29q30 0 61.5 13.5t52.5 34.5q20 19 56 74q-5 131 -28.5 236t-60 164.5t-79.5 59.5t-79 -41q4 -20 4 -33q0 -17 -5 -40q-9 -43 -34 -77t-59.5 -52.5t-69.5 -18.5q-13 0 -25 3
q-16 -17 -17 -36q-3 -26 20 -45t71 -43q56 -29 85 -53.5t29 -61.5q0 -36 -28 -69t-76 -53.5t-103 -20.5q-69 0 -109 29.5t-40 72.5q0 44 36.5 77.5t109.5 75.5q-36 26 -36 56q0 19 10.5 35.5t33.5 39.5q-29 11 -45 38t-16 63q0 17 5 40q12 63 59 104.5t106 41.5q33 0 56 -16
t34 -43q23 29 52 45.5t53 16.5q52 0 93.5 -60.5t66 -158t29.5 -205.5q36 65 63 130t36 115q5 32 5 49q0 36 -13 75q-6 22 -6 28q0 13 8 20.5t22 7.5q34 0 34 -51zM271 252q0 50 -19.5 86.5t-56.5 36.5q-32 0 -59.5 -28.5t-34.5 -70.5q-4 -17 -4 -39q0 -49 20.5 -85t57.5 -36
q32 0 58 26.5t35 71.5q3 18 3 38zM245 -113.5q-28 23.5 -81 51.5q-30 15 -51 29q-36 -20 -57 -34.5t-36 -36t-15 -49.5q0 -44 41 -72.5t107 -28.5q56 0 88 23t32 59q0 35 -28 58.5z" />
    <glyph glyph-name="longs_b.liga" unicode="&#x17f;b" 
d="M653 371q22 -28 22 -75q0 -18 -5 -45q-16 -82 -60.5 -142t-99.5 -91t-103 -31q-43 0 -69.5 19.5t-26.5 52.5q0 4 2 16l110 583q-16 23 -40.5 38.5t-51.5 15.5q-53 0 -93 -70.5t-59 -202.5l-68 -460q-14 -97 -31.5 -151.5t-43.5 -78.5t-66 -24q-29 0 -43.5 10.5
t-14.5 26.5q0 13 9 22t25 9q14 0 20 -7t11 -20q5 -12 9.5 -17.5t14.5 -5.5q13 0 22 15.5t18 59.5t22 135l68 465q25 172 82 240t144 68q31 0 53 -7t41 -19q14 14 20 44q1 3 7 2.5t5 -3.5l-100 -531q33 82 91 134.5t119 52.5q38 0 60 -28zM620 275q0 39 -15.5 61.5
t-48.5 22.5q-43 0 -82 -33t-68.5 -92.5t-44.5 -137.5q-1 -5 -1 -13q0 -32 24.5 -51.5t64.5 -19.5q34 0 67.5 25t59.5 72t38 111q6 30 6 55z" />
    <glyph glyph-name="longs_h.liga" unicode="&#x17f;h" horiz-adv-x="699" 
d="M680 79q3 0 5 -3.5t-1 -6.5q-35 -40 -61.5 -59t-50.5 -19q-17 0 -24 9.5t-7 32.5q0 20 6 56l30 159q6 32 6 55q0 62 -46 62q-33 0 -69.5 -42t-68.5 -121.5t-53 -187.5l-1 -8q-1 -6 -7.5 -10t-18.5 -4t-16 1.5t-4 4.5q0 6 6 28q9 40 10 48l108 584q-16 23 -40.5 38.5
t-51.5 15.5q-53 0 -93 -70.5t-59 -202.5l-68 -460q-14 -97 -31.5 -151.5t-43.5 -78.5t-66 -24q-29 0 -43.5 10.5t-14.5 26.5q0 13 9 22t25 9q14 0 20 -7t11 -20q5 -12 9.5 -17.5t14.5 -5.5q13 0 22 15.5t18 59.5t22 135l68 465q25 172 82 240t144 68q31 0 53 -7t41 -19
q14 14 20 44q1 3 7 2.5t5 -3.5l-107 -570q36 105 85.5 165.5t103.5 60.5q32 0 47.5 -17.5t15.5 -55.5q0 -24 -6 -59l-33 -178q-3 -16 -3 -28q0 -33 20 -33q23 0 70 49q2 2 4 2z" />
    <glyph glyph-name="longs_i.liga" unicode="&#x17f;i" horiz-adv-x="471" 
d="M-73.5 -264.5q-14.5 10.5 -14.5 26.5q0 13 9 22t25 9q14 0 20 -7t11 -20q5 -12 9.5 -17.5t14.5 -5.5q13 0 22 15.5t18 59.5t22 135l68 465q25 174 84 241t137 67q43 0 67 -16.5t24 -39.5q0 -17 -8 -25t-21 -8q-12 0 -18 7.5t-12 23.5q-8 21 -18.5 32.5t-33.5 11.5
q-54 0 -94 -69.5t-60 -203.5l-67 -460q-14 -97 -31.5 -151.5t-43.5 -78.5t-66 -24q-29 0 -43.5 10.5zM277 0.5q-8 9.5 -8 33.5q0 23 7 55l41 208q3 17 3 28q0 16 -5.5 24.5t-14.5 8.5q-12 0 -31.5 -12t-40.5 -35q-1 -1 -3 -1q-3 0 -5.5 3.5t0.5 5.5q34 39 62 57.5t52 18.5
q17 0 24.5 -9.5t7.5 -31.5q0 -23 -7 -57l-40 -208q-3 -16 -3 -29q0 -32 20 -32q12 0 31 12.5t40 34.5q1 1 3 1q4 0 6 -3.5t-1 -5.5q-66 -76 -113 -76q-17 0 -25 9.5z" />
    <glyph glyph-name="longs_j.liga" unicode="&#x17f;j" horiz-adv-x="483" 
d="M-73.5 -264.5q-14.5 10.5 -14.5 26.5q0 13 9 22t25 9q14 0 20 -7t11 -20q5 -12 9.5 -17.5t14.5 -5.5q13 0 22 15.5t18 59.5t22 135l68 465q48 308 230 308q48 0 72 -18.5t21 -44.5q-5 -26 -28 -26q-12 0 -18 7.5t-12 23.5q-8 21 -18.5 32.5t-35.5 11.5q-56 0 -99.5 -69.5
t-64.5 -203.5l-67 -460q-14 -97 -31.5 -151.5t-43.5 -78.5t-66 -24q-29 0 -43.5 10.5zM146 -264.5q-14 10.5 -14 25.5t9 23.5t21 8.5q10 0 14.5 -7t8.5 -20q5 -14 9.5 -20.5t13.5 -6.5q23 0 38 43t34 154l62 361q3 17 3 28q0 33 -20 33q-12 0 -31 -12t-41 -35q-1 -1 -3 -1
q-3 0 -5.5 3.5t0.5 5.5q34 39 62 57.5t53 18.5q16 0 23 -9.5t7 -31.5q0 -21 -6 -57l-58 -339q-16 -94 -33 -143t-41.5 -69.5t-64.5 -20.5q-27 0 -41 10.5z" />
    <glyph glyph-name="longs_k.liga" unicode="&#x17f;k" horiz-adv-x="674" 
d="M661 76q4 0 6 -3.5t0 -5.5q-67 -76 -106 -76q-22 0 -38.5 14.5t-38.5 52.5l-58 102q-8 15 -15.5 21.5t-19.5 6.5q-3 0 -13 -2l-33 -180q-1 -6 -7.5 -10t-18.5 -4t-16 1.5t-4 4.5q0 6 6 28q9 40 10 48l108 584q-16 23 -40.5 38.5t-51.5 15.5q-53 0 -93 -70.5t-59 -202.5
l-68 -460q-14 -97 -31.5 -151.5t-43.5 -78.5t-66 -24q-29 0 -43.5 10.5t-14.5 26.5q0 13 9 22t25 9q14 0 20 -7t11 -20q5 -12 9.5 -17.5t14.5 -5.5q13 0 22 15.5t18 59.5t22 135l68 465q25 172 82 240t144 68q31 0 53 -7t41 -19q14 14 20 44q1 3 7 2.5t5 -3.5l-83 -441
q37 45 84 71t95 26q28 0 40 -14.5t12 -33.5q0 -9 -1 -12q-7 -35 -53 -69t-122 -61l68 -119q20 -35 34.5 -47.5t30.5 -12.5q28 0 70 45q1 1 3 1zM443 327.5q-43 -44.5 -61 -119.5l-2 -9q96 23 138 49.5t52 75.5q2 10 2 15q0 16 -8.5 24.5t-23.5 8.5q-54 0 -97 -44.5z" />
    <glyph glyph-name="longs_l.liga" unicode="&#x17f;l" horiz-adv-x="488" 
d="M360 89q-3 -16 -3 -28q0 -33 21 -33q22 0 69 49q2 2 3 2q3 0 5.5 -3.5t-0.5 -6.5q-35 -40 -61.5 -59t-50.5 -19q-17 0 -25 10t-8 33q0 15 7 55l106 569q-16 23 -40.5 38.5t-51.5 15.5q-53 0 -93 -70.5t-59 -202.5l-68 -460q-14 -97 -31.5 -151.5t-43.5 -78.5t-66 -24
q-29 0 -43.5 10.5t-14.5 26.5q0 13 9 22t25 9q14 0 20 -7t11 -20q5 -12 9.5 -17.5t14.5 -5.5q13 0 22 15.5t18 59.5t22 135l68 465q25 172 82 240t144 68q31 0 53 -7t41 -19q14 14 20 44q1 3 7 2.5t5 -3.5z" />
    <glyph glyph-name="longs_thorn.liga" unicode="&#x17f;&#xfe;" horiz-adv-x="677" 
d="M633 363.5q25 -29.5 25 -77.5q0 -17 -3 -35q-16 -77 -57 -134.5t-91 -87.5t-93 -30q-35 0 -61 4l-33 -181q-3 -17 -3 -28q0 -19 9 -27t29 -8q5 0 25 2h1q3 0 4 -5t-3 -6l-168 -25q-4 -1 -5 5t3 7q24 4 34.5 10t16.5 20.5t12 47.5l87 474q-15 -10 -45 -34h-1q-3 0 -6 3.5
t0 4.5q36 32 55 46l63 342q-16 25 -42 43t-55 18q-53 0 -93 -70.5t-59 -202.5l-68 -460q-14 -97 -31.5 -151.5t-43.5 -78.5t-66 -24q-29 0 -43.5 10.5t-14.5 26.5q0 13 9 22t25 9q14 0 20 -7t11 -20q5 -12 9.5 -17.5t14.5 -5.5q13 0 22 15.5t18 59.5t22 135l68 465
q25 172 82 240t144 68q57 0 97 -28q17 12 23 46q0 3 5 3q3 0 5.5 -1.5t1.5 -2.5l-73 -399q83 49 149 49q43 0 68 -29.5zM603 261q0 44 -19 71.5t-59 27.5q-48 0 -113 -38l-51 -278q34 -17 79 -17q68 0 105 48t54 145q4 28 4 41z" />
    <glyph glyph-name="longs_longs.liga" unicode="&#x17f;&#x17f;" horiz-adv-x="470" 
d="M595.5 712.5q17.5 -13.5 17.5 -33.5q0 -13 -6.5 -21.5t-20.5 -8.5q-17 0 -23 8.5t-9 25.5q-3 16 -7.5 23t-18.5 7q-20 0 -36.5 -19t-30.5 -59l4 -3l-11 -18q-18 -58 -35 -175l-68 -460q-14 -97 -31.5 -151.5t-43.5 -78.5t-66 -24q-29 0 -43.5 10.5t-14.5 26.5q0 13 9 22
t25 9q14 0 20 -7t11 -20q5 -12 9.5 -17.5t14.5 -5.5q13 0 22 15.5t18 59.5t22 135l68 465q18 123 42 193q-16 19 -38 31t-45 12q-50 0 -88 -56t-53 -159l-67 -460q-14 -97 -31.5 -151.5t-43.5 -78.5t-66 -24q-29 0 -43.5 10.5t-14.5 26.5q0 13 9 22t25 9q14 0 20 -7t11 -20
q5 -12 9.5 -17.5t14.5 -5.5q13 0 22 15.5t18 59.5t22 135l68 465q20 139 75.5 194.5t138.5 55.5q43 0 75 -15q20 39 47 56t64 17q36 0 53.5 -13.5z" />
    <glyph glyph-name="longs_longs_b.liga" unicode="&#x17f;&#x17f;b" horiz-adv-x="932" 
d="M893 371q22 -28 22 -75q0 -18 -5 -45q-16 -82 -60.5 -142t-99.5 -91t-103 -31q-43 0 -69.5 19.5t-26.5 52.5q0 4 2 16l110 583q-16 23 -40.5 38.5t-51.5 15.5q-53 0 -93 -70.5t-59 -202.5l-68 -460q-14 -97 -31.5 -151.5t-43.5 -78.5t-66 -24q-29 0 -43.5 10.5
t-14.5 26.5q0 13 9 22t25 9q14 0 20 -7t11 -20q5 -12 9.5 -17.5t14.5 -5.5q13 0 22 15.5t18 59.5t22 135l68 465q18 117 49 184q-16 22 -40 37t-50 15q-50 0 -88 -56t-53 -159l-67 -460q-14 -97 -31.5 -151.5t-43.5 -78.5t-66 -24q-29 0 -43.5 10.5t-14.5 26.5q0 13 9 22
t25 9q14 0 20 -7t11 -20q5 -12 9.5 -17.5t14.5 -5.5q13 0 22 15.5t18 59.5t22 135l68 465q20 139 75.5 194.5t138.5 55.5q51 0 88 -22q55 80 153 80q31 0 53 -7t41 -19q14 14 20 44q1 3 7 2.5t5 -3.5l-100 -531q33 82 91 134.5t119 52.5q38 0 60 -28zM860 275
q0 39 -15.5 61.5t-48.5 22.5q-43 0 -82 -33t-68.5 -92.5t-44.5 -137.5q-1 -5 -1 -13q0 -32 24.5 -51.5t64.5 -19.5q34 0 67.5 25t59.5 72t38 111q6 30 6 55z" />
    <glyph glyph-name="longs_longs_h.liga" unicode="&#x17f;&#x17f;h" horiz-adv-x="945" 
d="M926 79q3 0 5 -3.5t-1 -6.5q-35 -40 -61.5 -59t-50.5 -19q-17 0 -24 9.5t-7 32.5q0 20 6 56l30 159q6 32 6 55q0 62 -46 62q-33 0 -69.5 -42t-68.5 -121.5t-53 -187.5l-1 -8q-1 -6 -7.5 -10t-18.5 -4t-16 1.5t-4 4.5q0 6 6 28q9 40 10 48l108 584q-16 23 -40.5 38.5
t-51.5 15.5q-53 0 -93 -70.5t-59 -202.5l-68 -460q-14 -97 -31.5 -151.5t-43.5 -78.5t-66 -24q-29 0 -43.5 10.5t-14.5 26.5q0 13 9 22t25 9q14 0 20 -7t11 -20q5 -12 9.5 -17.5t14.5 -5.5q13 0 22 15.5t18 59.5t22 135l68 465q16 111 47 179q-17 24 -42 40.5t-52 16.5
q-50 0 -88 -56t-53 -159l-67 -460q-14 -97 -31.5 -151.5t-43.5 -78.5t-66 -24q-29 0 -43.5 10.5t-14.5 26.5q0 13 9 22t25 9q14 0 20 -7t11 -20q5 -12 9.5 -17.5t14.5 -5.5q13 0 22 15.5t18 59.5t22 135l68 465q20 139 75.5 194.5t138.5 55.5q53 0 93 -25q29 44 67.5 63.5
t86.5 19.5q31 0 53 -7t41 -19q14 14 20 44q1 3 7 2.5t5 -3.5l-107 -570q36 105 85.5 165.5t103.5 60.5q32 0 47.5 -17.5t15.5 -55.5q0 -24 -6 -59l-33 -178q-3 -16 -3 -28q0 -33 20 -33q23 0 70 49q2 2 4 2z" />
    <glyph glyph-name="longs_longs_i.liga" unicode="&#x17f;&#x17f;i" horiz-adv-x="711" 
d="M659 709.5q24 -16.5 24 -39.5q0 -17 -8 -25t-21 -8q-12 0 -18 7.5t-12 23.5q-8 21 -18.5 32.5t-33.5 11.5q-54 0 -94 -69.5t-60 -203.5l-67 -460q-14 -97 -31.5 -151.5t-43.5 -78.5t-66 -24q-29 0 -43.5 10.5t-14.5 26.5q0 13 9 22t25 9q14 0 20 -7t11 -20
q5 -12 9.5 -17.5t14.5 -5.5q13 0 22 15.5t18 59.5t22 135l68 465q17 114 50 184q-17 22 -41 37t-50 15q-50 0 -88 -56t-53 -159l-67 -460q-14 -97 -31.5 -151.5t-43.5 -78.5t-66 -24q-29 0 -43.5 10.5t-14.5 26.5q0 13 9 22t25 9q14 0 20 -7t11 -20q5 -12 9.5 -17.5
t14.5 -5.5q13 0 22 15.5t18 59.5t22 135l68 465q20 139 75.5 194.5t138.5 55.5q51 0 89 -23q54 81 147 81q43 0 67 -16.5zM650 76q4 0 6 -3.5t-1 -5.5q-66 -76 -113 -76q-17 0 -25 9.5t-8 33.5q0 23 7 55l41 208q3 17 3 28q0 16 -5.5 24.5t-14.5 8.5q-12 0 -31.5 -12
t-40.5 -35q-1 -1 -3 -1q-3 0 -5.5 3.5t0.5 5.5q34 39 62 57.5t52 18.5q17 0 24.5 -9.5t7.5 -31.5q0 -23 -7 -57l-40 -208q-3 -16 -3 -29q0 -32 20 -32q12 0 31 12.5t40 34.5q1 1 3 1z" />
    <glyph glyph-name="longs_longs_j.liga" unicode="&#x17f;&#x17f;j" horiz-adv-x="705" 
d="M673 707.5q24 -18.5 21 -44.5q-5 -26 -28 -26q-12 0 -18 7.5t-12 23.5q-8 21 -18.5 32.5t-35.5 11.5q-56 0 -99.5 -69.5t-64.5 -203.5l-67 -460q-14 -97 -31.5 -151.5t-43.5 -78.5t-66 -24q-29 0 -43.5 10.5t-14.5 26.5q0 13 9 22t25 9q14 0 20 -7t11 -20
q5 -12 9.5 -17.5t14.5 -5.5q13 0 22 15.5t18 59.5t22 135l68 465q17 111 52 181q-17 23 -41.5 39t-51.5 16q-50 0 -88 -56t-53 -159l-67 -460q-14 -97 -31.5 -151.5t-43.5 -78.5t-66 -24q-29 0 -43.5 10.5t-14.5 26.5q0 13 9 22t25 9q14 0 20 -7t11 -20q5 -12 9.5 -17.5
t14.5 -5.5q13 0 22 15.5t18 59.5t22 135l68 465q20 139 75.5 194.5t138.5 55.5q54 0 92 -25q59 83 153 83q48 0 72 -18.5zM623 385.5q7 -9.5 7 -31.5q0 -21 -6 -57l-58 -339q-16 -94 -33 -143t-41.5 -69.5t-64.5 -20.5q-27 0 -41 10.5t-14 25.5t9 23.5t21 8.5q10 0 14.5 -7
t8.5 -20q5 -14 9.5 -20.5t13.5 -6.5q23 0 38 43t34 154l62 361q3 17 3 28q0 33 -20 33q-12 0 -31 -12t-41 -35q-1 -1 -3 -1q-3 0 -5.5 3.5t0.5 5.5q34 39 62 57.5t53 18.5q16 0 23 -9.5z" />
    <glyph glyph-name="longs_longs_k.liga" unicode="&#x17f;&#x17f;k" horiz-adv-x="908" 
d="M907 76q4 0 6 -3.5t0 -5.5q-67 -76 -106 -76q-22 0 -38.5 14.5t-38.5 52.5l-58 102q-8 15 -15.5 21.5t-19.5 6.5q-3 0 -13 -2l-33 -180q-1 -6 -7.5 -10t-18.5 -4t-16 1.5t-4 4.5q0 6 6 28q9 40 10 48l108 584q-16 23 -40.5 38.5t-51.5 15.5q-53 0 -93 -70.5t-59 -202.5
l-68 -460q-14 -97 -31.5 -151.5t-43.5 -78.5t-66 -24q-29 0 -43.5 10.5t-14.5 26.5q0 13 9 22t25 9q14 0 20 -7t11 -20q5 -12 9.5 -17.5t14.5 -5.5q13 0 22 15.5t18 59.5t22 135l68 465q16 111 47 179q-17 24 -42 40.5t-52 16.5q-50 0 -88 -56t-53 -159l-67 -460
q-14 -97 -31.5 -151.5t-43.5 -78.5t-66 -24q-29 0 -43.5 10.5t-14.5 26.5q0 13 9 22t25 9q14 0 20 -7t11 -20q5 -12 9.5 -17.5t14.5 -5.5q13 0 22 15.5t18 59.5t22 135l68 465q20 139 75.5 194.5t138.5 55.5q53 0 93 -25q29 44 67.5 63.5t86.5 19.5q31 0 53 -7t41 -19
q14 14 20 44q1 3 7 2.5t5 -3.5l-83 -441q37 45 84 71t95 26q28 0 40 -14.5t12 -33.5q0 -9 -1 -12q-7 -35 -53 -69t-122 -61l68 -119q20 -35 34.5 -47.5t30.5 -12.5q28 0 70 45q1 1 3 1zM689 327.5q-43 -44.5 -61 -119.5l-2 -9q96 23 138 49.5t52 75.5q2 10 2 15
q0 16 -8.5 24.5t-23.5 8.5q-54 0 -97 -44.5z" />
    <glyph glyph-name="longs_longs_l.liga" unicode="&#x17f;&#x17f;l" horiz-adv-x="733" 
d="M606 89q-3 -16 -3 -28q0 -33 21 -33q22 0 69 49q2 2 3 2q3 0 5.5 -3.5t-0.5 -6.5q-35 -40 -61.5 -59t-50.5 -19q-17 0 -25 10t-8 33q0 15 7 55l106 569q-16 23 -40.5 38.5t-51.5 15.5q-53 0 -93 -70.5t-59 -202.5l-68 -460q-14 -97 -31.5 -151.5t-43.5 -78.5t-66 -24
q-29 0 -43.5 10.5t-14.5 26.5q0 13 9 22t25 9q14 0 20 -7t11 -20q5 -12 9.5 -17.5t14.5 -5.5q13 0 22 15.5t18 59.5t22 135l68 465q16 111 47 179q-17 24 -42 40.5t-52 16.5q-50 0 -88 -56t-53 -159l-67 -460q-14 -97 -31.5 -151.5t-43.5 -78.5t-66 -24q-29 0 -43.5 10.5
t-14.5 26.5q0 13 9 22t25 9q14 0 20 -7t11 -20q5 -12 9.5 -17.5t14.5 -5.5q13 0 22 15.5t18 59.5t22 135l68 465q20 139 75.5 194.5t138.5 55.5q53 0 93 -25q29 44 67.5 63.5t86.5 19.5q31 0 53 -7t41 -19q14 14 20 44q1 3 7 2.5t5 -3.5z" />
    <glyph glyph-name="longs_longs_thorn.liga" unicode="&#x17f;&#x17f;&#xfe;" horiz-adv-x="923" 
d="M879 363.5q25 -29.5 25 -77.5q0 -17 -3 -35q-16 -77 -57 -134.5t-91 -87.5t-93 -30q-35 0 -61 4l-33 -181q-3 -17 -3 -28q0 -19 9 -27t29 -8q5 0 25 2h1q3 0 4 -5t-3 -6l-168 -25q-4 -1 -5 5t3 7q24 4 34.5 10t16.5 20.5t12 47.5l87 474q-15 -10 -45 -34h-1q-3 0 -6 3.5
t0 4.5q36 32 55 46l63 342q-16 25 -42 43t-55 18q-53 0 -93 -70.5t-59 -202.5l-68 -460q-14 -97 -31.5 -151.5t-43.5 -78.5t-66 -24q-29 0 -43.5 10.5t-14.5 26.5q0 13 9 22t25 9q14 0 20 -7t11 -20q5 -12 9.5 -17.5t14.5 -5.5q13 0 22 15.5t18 59.5t22 135l68 465
q16 111 47 179q-17 24 -42 40.5t-52 16.5q-50 0 -88 -56t-53 -159l-67 -460q-14 -97 -31.5 -151.5t-43.5 -78.5t-66 -24q-29 0 -43.5 10.5t-14.5 26.5q0 13 9 22t25 9q14 0 20 -7t11 -20q5 -12 9.5 -17.5t14.5 -5.5q13 0 22 15.5t18 59.5t22 135l68 465q20 139 75.5 194.5
t138.5 55.5q53 0 93 -25q29 44 67.5 63.5t86.5 19.5q57 0 97 -28q17 12 23 46q0 3 5 3q3 0 5.5 -1.5t1.5 -2.5l-73 -399q83 49 149 49q43 0 68 -29.5zM849 261q0 44 -19 71.5t-59 27.5q-48 0 -113 -38l-51 -278q34 -17 79 -17q68 0 105 48t54 145q4 28 4 41z" />
    <glyph glyph-name=".notdef" horiz-adv-x="450" 
d="M1 -275l177 1000h285l-176 -1000h-286zM214 556h150l6 32h-60l6 38h61l5 32h-148l-6 -32h57l-5 -38h-60zM192 426h150l5 34h-60l12 69h-90zM227 460l6 35h30l-7 -35h-29zM168 295h90l12 70h60l6 33h-149l-6 -33h59l-6 -36h-60zM159 239h149l17 99h-29l-12 -65h-119z
M135 103h149l20 113h-90l-10 -56h30l5 24h30l-8 -48h-91l14 80h-30zM104 -70h150l20 113h-150zM139 -37l8 48h92l-9 -48h-91zM81 -206h148l6 33h-91l70 47h29l6 34h-148l-6 -34h63l-71 -47z" />
    <glyph glyph-name=".null" horiz-adv-x="0" 
 />
    <glyph glyph-name="nonmarkingreturn" unicode="&#xd;" horiz-adv-x="234" 
 />
    <glyph glyph-name="NULL" horiz-adv-x="0" 
 />
    <glyph glyph-name="NULL" horiz-adv-x="0" 
 />
    <glyph glyph-name="space" unicode=" " horiz-adv-x="234" 
 />
    <glyph glyph-name="exclam" unicode="!" horiz-adv-x="219" 
d="M106.5 186.5q-5.5 0.5 -4.5 5.5l9 67q17 120 27 204t12 158q0 4 11.5 8t24.5 4q14 0 25 -4t10 -8q-26 -79 -49 -172.5t-50 -215.5l-9 -42q-1 -5 -6.5 -4.5zM48.5 -0.5q-10.5 10.5 -10.5 28.5q0 17 10.5 27t28.5 10q19 0 29 -10t10 -27q0 -18 -10 -28.5t-29 -10.5
q-18 0 -28.5 10.5z" />
    <glyph glyph-name="quotedbl" unicode="&#x22;" horiz-adv-x="315" 
d="M134 609q1 9 18 18t34 12t16 -2l-106 -329q-1 -3 -5.5 -3.5t-4.5 1.5zM275 609q1 9 18 18t34 12t16 -2l-106 -329q-1 -3 -5.5 -3.5t-4.5 1.5z" />
    <glyph glyph-name="numbersign" unicode="#" horiz-adv-x="433" 
d="M410 297q0 -21 -4 -21h-72l-54 -161h60q3 0 3 -16q0 -22 -4 -22h-72l-53 -159q0 -2 -5 -2q-6 0 -14.5 3t-7.5 6l51 152h-122l-53 -159q0 -2 -5 -2q-6 0 -14.5 3t-7.5 6l51 152h-59q-1 0 -2.5 6t-1.5 13t1 13t3 6h71l54 161h-58q-2 0 -3 6t-1 13t1.5 12.5t2.5 5.5h71
l56 169q0 2 4 2q6 0 15 -4t8 -7l-54 -160h122l56 169q0 2 4 2q6 0 15 -4t8 -7l-54 -160h61q3 0 3 -16zM250 115l54 161h-121l-54 -161h121z" />
    <glyph glyph-name="dollar" unicode="$" horiz-adv-x="367" 
d="M331 448.5q2 -2.5 1 -8.5l-7 -86q0 -3 -4 -3q-6 0 -6 8q0 37 -20.5 68t-53.5 38l-35 -201l12 -8q44 -28 66.5 -52.5t22.5 -63.5q0 -56 -41.5 -100t-107.5 -51l-16 -92q-1 -6 -9 -6q-4 0 -7 2t-2 6l16 89h-5q-56 0 -95 35q-5 3 -6 7t0 12l6 95q0 5 5 4.5t5 -5.5
q-1 -52 25 -89.5t67 -43.5l39 218l-7 5q-42 28 -64 52t-22 62q0 8 2 24q9 51 47.5 81t88.5 34l15 84q2 6 9 6q4 0 6.5 -2.5t1.5 -6.5l-14 -80q39 -2 76 -24q9 -5 11 -7.5zM133 362q0 -27 15 -47.5t42 -39.5l34 192q-34 0 -58 -24t-31 -63q-2 -12 -2 -18zM258 116
q0 29 -16 51t-45 43l-37 -208q33 2 60.5 24t35.5 68q2 16 2 22z" />
    <glyph glyph-name="percent" unicode="%" horiz-adv-x="517" 
d="M90 331q-24 28 -24 73q0 40 18.5 76t49.5 58t66 22q40 0 63 -28t23 -72q0 -15 -3 -30q-10 -54 -46.5 -90.5t-82.5 -36.5q-40 0 -64 28zM58 -6q-4 0 -11 5t-5 7l429 544l2 1q5 0 11.5 -5.5t4.5 -7.5l-429 -543zM209 341q15 28 25 82q6 32 6 55q0 35 -12.5 53.5t-35.5 18.5
q-32 0 -49 -30.5t-26 -83.5q-6 -28 -6 -53q0 -70 52 -70q31 0 46 28zM285.5 23.5q-24.5 28.5 -24.5 72.5q0 41 18.5 77t49 58t65.5 22q40 0 63.5 -28.5t23.5 -72.5q0 -42 -18 -78t-48.5 -57.5t-64.5 -21.5q-40 0 -64.5 28.5zM405 34q15 28 24 82q6 32 6 55q0 35 -12.5 53
t-35.5 18q-31 0 -48.5 -30t-26.5 -83q-6 -28 -6 -53q0 -70 52 -70q32 0 47 28z" />
    <glyph glyph-name="ampersand" unicode="&#x26;" horiz-adv-x="747" 
d="M741 369q6 -6 6 -23q0 -37 -27.5 -66.5t-65.5 -29.5q-27 0 -73 21q-18 -139 -91.5 -211t-183.5 -72q-67 0 -119.5 32.5t-82 86.5t-29.5 118q0 31 5 53q12 53 46 96t80 67t90 24q51 0 82 -32q63 70 63 124q0 19 -5.5 29.5t-15.5 20.5q-13 13 -13 26t7.5 20.5t19.5 7.5
q20 0 34 -19t14 -51q0 -54 -42.5 -111t-100.5 -107t-147 -117l-66 -51q11 -54 43 -95.5t76.5 -64.5t92.5 -23q94 0 155 65.5t73 191.5l-20 10q-38 20 -64.5 30.5t-48.5 10.5q-14 0 -22.5 -6t-8.5 -15q0 -8 3 -16.5t4 -11.5q7 -14 7 -25q0 -9 -5 -15.5t-17 -6.5q-24 0 -24 30
q0 25 15.5 47.5t40.5 36t52 13.5q23 0 49.5 -10t64.5 -30q37 -19 58.5 -27.5t40.5 -8.5q13 0 21 5.5t8 12.5q0 8 -9 24q-10 16 -10 27q0 21 23 21q11 0 17 -6zM121 259q0 -19 3 -39q17 14 73 57q90 71 136 112q-16 27 -39.5 38.5t-47.5 11.5q-40 0 -73.5 -37t-46.5 -92
q-5 -30 -5 -51z" />
    <glyph glyph-name="quotesingle" unicode="'" horiz-adv-x="127" 
d="M111 609q1 9 18 18t34 12t16 -2l-106 -329q-1 -3 -5.5 -3.5t-4.5 1.5z" />
    <glyph glyph-name="parenleft" unicode="(" horiz-adv-x="278" 
d="M102 1q-31 77 -31 177q0 60 12 126q25 142 93 255t164 166h1q3 0 5.5 -3.5t-0.5 -4.5q-83 -71 -134.5 -173.5t-75.5 -239.5q-15 -84 -15 -156q0 -160 78 -257v-1q0 -3 -2.5 -5.5t-4.5 -1.5q-59 41 -90 118z" />
    <glyph glyph-name="parenright" unicode=")" horiz-adv-x="278" 
d="M216 607q31 -77 31 -177q0 -60 -12 -126q-25 -142 -93 -255t-164 -166h-1q-3 0 -5.5 3.5t0.5 4.5q83 71 134.5 173.5t75.5 239.5q15 84 15 156q0 160 -78 257v1q0 3 2.5 5.5t4.5 1.5q59 -41 90 -118z" />
    <glyph glyph-name="asterisk" unicode="*" horiz-adv-x="448" 
d="M275 657q0 9 17.5 18t35 12t15.5 -2l-67 -156q-1 -3 -6 -3t-5 3zM124 559q-13 5 -13 44q0 14 2 23.5t5 6.5l129 -113q1 -1 1 -3t-1.5 -4.5t-3.5 -1.5zM291 503q-2 0 -3.5 4.5t0.5 5.5l126 31q9 2 22.5 -11.5t22 -29t2.5 -15.5zM156 382q-11 0 -26 4.5t-24.5 10t-6.5 7.5
l147 87l2 1q2 0 4.5 -3t1.5 -4l-83 -98q-4 -5 -15 -5zM273 481v1q0 2 3.5 5t4.5 1l69 -110q5 -8 -4.5 -25t-21.5 -30.5t-13 -7.5z" />
    <glyph glyph-name="plus" unicode="+" horiz-adv-x="398" 
d="M367.5 202.5q1.5 -5.5 1.5 -12.5t-1.5 -13t-3.5 -6h-146v-146q0 -2 -7 -3.5t-15 -1.5q-16 0 -16 3v148h-146q-2 0 -3.5 6.5t-1.5 13.5q0 6 1 11.5t3 5.5h147v146q0 2 6 3.5t13 1.5t13 -1.5t6 -3.5v-146h146q2 0 3.5 -5.5z" />
    <glyph glyph-name="comma" unicode="," horiz-adv-x="222" 
d="M107 47q14 -16 14 -45q0 -46 -27.5 -83.5t-80.5 -77.5q-1 -1 -3 -1q-3 0 -5 4t1 6q38 28 59 56t26 60q1 6 1 16q0 13 -3 21q-9 -11 -27 -11q-17 0 -26.5 9.5t-9.5 25.5q0 17 11.5 26.5t32.5 9.5q23 0 37 -16z" />
    <glyph glyph-name="hyphen" unicode="-" horiz-adv-x="305" 
d="M28.5 175q-1.5 8 -1.5 17q0 18 3 19l250 46q4 1 4 -20t-4 -22l-248 -47q-2 -1 -3.5 7z" />
    <glyph glyph-name="period" unicode="." horiz-adv-x="195" 
d="M36.5 -0.5q-10.5 10.5 -10.5 28.5q0 17 10.5 27t28.5 10q19 0 29 -10t10 -27q0 -18 -10 -28.5t-29 -10.5q-18 0 -28.5 10.5z" />
    <glyph glyph-name="slash" unicode="/" horiz-adv-x="305" 
d="M-13 -168q-7 0 -17 4.5t-9 7.5l384 886q2 3 6 3q8 0 17 -5.5t6 -9.5l-382 -884q-1 -2 -5 -2z" />
    <glyph glyph-name="zero" unicode="0" horiz-adv-x="436" 
d="M72.5 32q-41.5 45 -41.5 119q0 24 4 45q10 59 42.5 105t79.5 72t99 26q68 0 108.5 -43.5t40.5 -115.5q0 -26 -4 -47q-10 -59 -42 -106t-78.5 -73.5t-98.5 -26.5q-68 0 -109.5 45zM291 48q38 49 53 133q6 36 6 66q0 69 -29 104.5t-75 35.5q-58 0 -99 -51t-56 -132
q-5 -25 -5 -58q0 -67 28.5 -107t80.5 -40q58 0 96 49z" />
    <glyph glyph-name="one" unicode="1" horiz-adv-x="291" 
d="M12 6q0 6 4 6q38 0 57.5 5t28.5 19.5t15 44.5l34 188q6 33 6 50q0 11 -3.5 16.5t-11.5 5.5q-16 0 -71 -26l-2 -1q-4 0 -5 5t3 6l142 70q3 2 6 0t1 -4l-55 -310q-3 -18 -3 -30q0 -24 17 -31.5t65 -7.5q3 0 3 -6t-3 -6q-30 0 -47 1l-64 1l-65 -1q-17 -1 -48 -1q-4 0 -4 6z
" />
    <glyph glyph-name="two" unicode="2" horiz-adv-x="360" 
d="M156 135q55 50 82.5 92.5t27.5 83.5q0 31 -18 49.5t-49 18.5q-73 0 -124 -121q-1 -2 -4 -2t-6 2t-2 4l57 147q2 3 6.5 2t3.5 -5q-3 -9 -3 -14q0 -12 11 -12q9 0 30 7q3 1 22.5 6.5t41.5 5.5q38 0 60 -21.5t22 -57.5q0 -15 -2 -24q-10 -50 -61 -104t-176 -146
q-3 -2 -2 -3.5t4 -1.5q103 0 144 3.5t59 17.5t31 49q2 3 5 3t5.5 -2t1.5 -4l-29 -99q-4 -9 -10 -9h-273q-5 0 -7 5t2 9q95 71 150 121z" />
    <glyph glyph-name="three" unicode="3" horiz-adv-x="339" 
d="M268 205q-34 -51 -88 -75q49 -5 73.5 -36t24.5 -76q0 -15 -3 -30q-9 -48 -46 -99t-102.5 -95t-154.5 -70q-4 -1 -5.5 5t0.5 7q118 35 178 105t73 144q3 17 3 33q0 40 -19.5 65.5t-63.5 25.5q-16 0 -46 -7q-3 -1 -5 6t1 8q76 20 112.5 56.5t47.5 98.5q4 24 4 35
q0 34 -17 53.5t-51 19.5q-40 0 -72 -29.5t-58 -92.5q-1 -1 -3 -1q-3 0 -6.5 2t-2.5 4l60 146q1 1 3 1q3 0 5.5 -2t1.5 -5q-4 -8 -4 -15q0 -10 12 -10q10 0 29 8q20 7 35 10.5t31 3.5q42 0 64.5 -25.5t22.5 -64.5q0 -53 -34 -104z" />
    <glyph glyph-name="four" unicode="4" horiz-adv-x="421" 
d="M360 22q-4 -21 -8 -21q-27 2 -79 4l-29 -163q-2 -11 -9 -14l-31 -16l-6 -2q-4 0 -3 8l33 188q-64 2 -241 2q-4 0 -5.5 4t2.5 8l345 376q2 2 5 2t6 -1.5t2 -4.5l-63 -351q25 0 81 2q4 0 0 -21zM234 39l49 276l-253 -271q-5 -7 4 -7q84 0 200 2z" />
    <glyph glyph-name="five" unicode="5" horiz-adv-x="374" 
d="M352 425q3 0 5.5 -2t1.5 -4l-29 -62q-6 -12 -11.5 -15t-17.5 -3l-171 -4q-11 0 -17 -15l-41 -124q109 -1 161 -40t52 -109q0 -18 -3 -38q-16 -84 -86.5 -148.5t-218.5 -135.5h-1q-4 0 -6 4.5t2 6.5q126 61 184 123.5t70 132.5q3 20 3 37q0 66 -44.5 102t-130.5 36
q-4 0 -6 3.5t0 8.5l60 178q2 7 4 8.5t10 2.5q115 15 155 21t52.5 12.5t19.5 21.5q2 2 3 2z" />
    <glyph glyph-name="six" unicode="6" horiz-adv-x="419" 
d="M78.5 28q-41.5 41 -41.5 116q0 32 7 64q17 93 71 183t139 161t188 109q4 1 5.5 -4.5t-1.5 -7.5q-95 -43 -168.5 -112.5t-119 -150.5t-59.5 -160q-7 -32 -7 -66q0 -70 33.5 -112.5t94.5 -42.5q41 0 68.5 29.5t36.5 81.5q4 30 4 42q0 46 -19.5 72.5t-58.5 26.5
q-25 0 -49 -12t-56 -39l-2 -1q-3 0 -5 3t-1 5q63 69 144 69q52 0 77 -30.5t25 -77.5q0 -15 -3 -32q-7 -42 -34.5 -77.5t-69 -56.5t-86.5 -21q-71 0 -112.5 41z" />
    <glyph glyph-name="seven" unicode="7" horiz-adv-x="386" 
d="M3 -275q-3 0 -4.5 2.5t0.5 4.5l347 606q6 7 -2 7q-134 0 -187.5 -4.5t-73.5 -17.5t-35 -47q0 -2 -4 -2q-3 0 -6 2t-2 4l54 135q0 2 3 2t6.5 -2t2.5 -3q-3 -9 -3 -14q0 -7 8.5 -9.5t31.5 -2.5h239q4 0 6 -4.5t0 -8.5l-304 -593q-9 -17 -24 -24l-52 -31h-1z" />
    <glyph glyph-name="eight" unicode="8" horiz-adv-x="440" 
d="M377 273q29 -33 29 -84q0 -18 -2 -28q-9 -49 -40.5 -89t-77 -62.5t-93.5 -22.5q-50 0 -86.5 18.5t-55.5 49.5t-19 68q0 67 53 127t121 90q-33 24 -50.5 46t-17.5 52q0 6 2 18q6 38 30.5 64.5t57 40t64.5 13.5q34 0 59 -14.5t38 -37t13 -45.5q0 -7 -2 -17
q-6 -27 -35.5 -59.5t-72.5 -57.5q56 -37 85 -70zM210.5 405q24.5 -25 73.5 -57q36 29 53 58t17 64q0 38 -22.5 63.5t-60.5 25.5q-37 0 -61 -24.5t-24 -68.5q0 -36 24.5 -61zM354 165q0 38 -16.5 66t-39.5 46.5t-63 44.5l-18 11q-51 -25 -84 -66t-42 -92q-3 -16 -3 -33
q0 -58 36 -98t97 -40q47 0 84 34t46 94q3 18 3 33z" />
    <glyph glyph-name="nine" unicode="9" horiz-adv-x="419" 
d="M-29 -270q-2 6 2 7q94 43 166 112t117 150t63 161q7 29 7 61q0 69 -33.5 114.5t-93.5 45.5q-39 0 -67 -24.5t-38 -74.5q-4 -17 -4 -38q0 -49 25 -82t65 -33q23 0 43.5 12t47.5 38q1 1 3 1q3 0 5.5 -2.5t1.5 -4.5q-28 -34 -62 -51.5t-69 -17.5q-56 0 -85.5 38t-29.5 88
q0 45 27 84t71.5 62t94.5 23q71 0 111 -44.5t40 -120.5q0 -31 -5 -56q-16 -93 -70.5 -183t-139 -161t-187.5 -109q-4 -1 -6 5z" />
    <glyph glyph-name="colon" unicode=":" horiz-adv-x="195" 
d="M73.5 280.5q-10.5 10.5 -10.5 28.5q0 17 10.5 27t28.5 10q19 0 29 -10t10 -27q0 -18 -10 -28.5t-29 -10.5q-18 0 -28.5 10.5zM36.5 -0.5q-10.5 10.5 -10.5 28.5q0 17 10.5 27t28.5 10q19 0 29 -10t10 -27q0 -18 -10 -28.5t-29 -10.5q-18 0 -28.5 10.5z" />
    <glyph glyph-name="semicolon" unicode=";" horiz-adv-x="222" 
d="M131 336q10 -10 10 -27q0 -18 -10 -28.5t-29 -10.5q-18 0 -28.5 10.5t-10.5 28.5q0 17 10.5 27t28.5 10q19 0 29 -10zM107 47q14 -16 14 -45q0 -46 -27.5 -83.5t-80.5 -77.5q-1 -1 -3 -1q-3 0 -5 4t1 6q38 28 59 56t26 60q1 6 1 16q0 13 -3 21q-9 -11 -27 -11
q-17 0 -26.5 9.5t-9.5 25.5q0 17 11.5 26.5t32.5 9.5q23 0 37 -16z" />
    <glyph glyph-name="less" unicode="&#x3c;" horiz-adv-x="407" 
d="M375 351.5q2 -4.5 2 -12.5q0 -19 -7 -23l-293 -125v-1l293 -126q7 -3 7 -23q0 -19 -7 -16l-334 148q-5 3 -5 17q0 15 5 17l334 147q3 2 5 -2.5z" />
    <glyph glyph-name="equal" unicode="=" horiz-adv-x="468" 
d="M30.5 247.5q-1.5 6.5 -1.5 13.5q0 6 1 11.5t3 5.5h401q2 0 3.5 -5.5t1.5 -12.5t-1.5 -13t-3.5 -6h-400q-2 0 -3.5 6.5zM30.5 107.5q-1.5 6.5 -1.5 13.5q0 6 1 11.5t3 5.5h401q2 0 3.5 -5.5t1.5 -12.5t-1.5 -13t-3.5 -6h-400q-2 0 -3.5 6.5z" />
    <glyph glyph-name="greater" unicode="&#x3e;" horiz-adv-x="407" 
d="M32 28.5q-2 4.5 -2 11.5q0 8 2 15t5 8l293 125v1l-293 126q-3 1 -5 8t-2 15t2 13t5 3l334 -148q5 -2 5 -17q0 -14 -5 -17l-334 -147q-3 -1 -5 3.5z" />
    <glyph glyph-name="question" unicode="?" horiz-adv-x="295" 
d="M131 256q0 28 4 54q5 31 21 51t48 46t51 49.5t26 60.5q3 14 3 26q0 33 -18 51.5t-51 18.5q-29 0 -41.5 -13t-20.5 -35q-6 -17 -14 -27.5t-22 -10.5q-13 0 -19 9t-4 22q4 27 42.5 47t85.5 20q50 0 80.5 -24.5t30.5 -68.5q0 -13 -3 -27q-8 -40 -30 -66.5t-43 -44l-27 -22.5
q-39 -34 -56 -61t-23 -63q-4 -16 -4 -57q0 -4 -5 -4t-5 4q-6 29 -6 65zM80.5 -0.5q-10.5 10.5 -10.5 28.5q0 17 10.5 27t28.5 10q19 0 29 -10t10 -27q0 -18 -10 -28.5t-29 -10.5q-18 0 -28.5 10.5z" />
    <glyph glyph-name="at" unicode="@" horiz-adv-x="717" 
d="M427 66q-13 16 -13 45q0 7 2 25l12 63q-35 -68 -79 -109.5t-82 -41.5q-22 0 -36 14.5t-14 44.5q0 12 1 18q8 54 41 107.5t76.5 87.5t82.5 34q30 0 46 -19q11 11 14 26q2 2 8 2q12 0 10 -3l-41 -224q-4 -24 -4 -32q0 -18 8 -27t29 -9q29 0 57 20.5t46 58.5t18 89
q0 63 -32.5 116.5t-88.5 84.5t-124 31q-78 0 -134.5 -36t-85.5 -97.5t-29 -136.5q0 -78 35 -137.5t97.5 -92.5t143.5 -33q48 0 83.5 9.5t82.5 35.5h1q2 0 4.5 -3.5t0.5 -4.5q-86 -67 -203 -67q-80 0 -144.5 32.5t-102 93.5t-37.5 144q0 92 44 164t117.5 112t156.5 40
q74 0 130 -30.5t86.5 -82.5t30.5 -114q0 -55 -24 -104.5t-64.5 -79.5t-85.5 -30q-27 0 -40 16zM348 109q32 28 57.5 72t35.5 88q2 10 2 16q0 20 -12 33t-35 13q-25 0 -54 -24.5t-51.5 -65.5t-29.5 -88q-3 -18 -3 -31q0 -41 30 -41q28 0 60 28z" />
    <glyph glyph-name="A" unicode="A" horiz-adv-x="599" 
d="M565 6q0 -6 -4 -6q-15 0 -45 2q-34 2 -54 2q-19 0 -51 -2q-30 -2 -44 -2q-3 0 -3 6t3 6q40 0 54.5 9.5t14.5 35.5q0 7 -2 27l-30 203h-191l-84 -154q-33 -59 -33 -87q0 -20 15.5 -27t46.5 -7q4 0 3.5 -6t-4.5 -6q-11 0 -43 2q-36 2 -56 2q-21 0 -49 -2t-43 -2q-4 0 -4 6
t4 6q66 0 128 108l288 515q2 3 7 3q9 0 11 -5l83 -549q4 -30 10.5 -44.5t21.5 -21t46 -6.5q4 0 4 -6zM223 305h178l-38 254z" />
    <glyph glyph-name="B" unicode="B" horiz-adv-x="511" 
d="M427.5 311q37.5 -38 37.5 -96q0 -16 -3 -34q-9 -50 -40.5 -92.5t-78 -67.5t-97.5 -25q-31 0 -66 3q-12 1 -29 2t-38 1l-61 -1q-16 -1 -43 -1q-3 0 -3 6t3 6q35 0 53.5 5.5t27.5 20t14 44.5l82 463q3 18 3 29q0 24 -15 31.5t-56 7.5q-4 0 -4 6t4 6l45 -1q38 -2 58 -2
q18 0 33.5 1t25.5 2q27 3 47 3q70 0 104 -28.5t34 -75.5q0 -11 -4 -33q-11 -49 -46 -84t-90 -54q65 -4 102.5 -42zM199 352l41 -1q76 0 119 38.5t54 101.5q3 17 3 32q0 42 -26 67t-84 25q-26 0 -38.5 -4t-21 -20t-14.5 -51zM409 200q0 61 -36 96t-103 36q-35 1 -75 -2
l-44 -250q-3 -13 -3 -24q0 -25 18.5 -34.5t67.5 -9.5q74 0 117.5 41.5t54.5 110.5q3 20 3 36z" />
    <glyph glyph-name="C" unicode="C" horiz-adv-x="585" 
d="M123 60.5q-62 73.5 -62 183.5q0 31 7 75q16 91 72 163.5t134.5 113t158.5 40.5q42 0 81.5 -10t62.5 -27q6 -5 7.5 -9t0.5 -15l-8 -105q-1 -4 -6 -4t-5 4q-5 77 -49 111t-121 34q-66 0 -122 -33.5t-93.5 -94.5t-51.5 -141q-8 -46 -8 -83q0 -76 25 -136t70.5 -94t105.5 -34
t114.5 38t93.5 112q2 2 3 2q3 0 5.5 -2t1.5 -4l-30 -106q-4 -13 -6.5 -17t-11.5 -7q-88 -28 -176 -28q-131 0 -193 73.5z" />
    <glyph glyph-name="D" unicode="D" horiz-adv-x="606" 
d="M177 -1q-12 1 -29 2t-38 1l-60 -1q-14 -1 -39 -1q-3 0 -3 6t3 6q33 0 49.5 5t25 19.5t13.5 44.5l82 463q4 26 4 32q0 22 -14.5 29.5t-52.5 7.5q-2 0 -2 6t2 6l41 -1q38 -2 60 -2q31 0 62 3q38 2 50 2q79 0 137.5 -31.5t89.5 -87t31 -126.5q0 -34 -5 -59
q-17 -97 -70.5 -171.5t-128 -115t-153.5 -40.5q-25 0 -55 3zM358.5 43q61.5 34 104 100t59.5 158q7 39 7 80q0 104 -50.5 168.5t-141.5 64.5q-38 0 -58.5 -5t-32.5 -20.5t-18 -46.5l-79 -450q-4 -24 -4 -31q0 -27 18 -39.5t63 -12.5q71 0 132.5 34z" />
    <glyph glyph-name="E" unicode="E" horiz-adv-x="510" 
d="M509 616l-9 -59q-3 -15 -5 -31.5t-5 -31.5q-1 -4 -7 -3t-5 4q3 18 3 34q0 38 -17 60t-48 22h-99q-33 0 -48.5 -5t-23.5 -19t-13 -44l-37 -208h148q38 0 55 15t23 54q0 3 6 3q2 0 4.5 -1.5t1.5 -3.5q-5 -30 -8 -42l-6 -35l-6 -39l-8 -52q-1 -4 -7 -3.5t-5 4.5q4 26 4 33
q0 26 -14 37t-47 11h-144l-41 -231q-3 -18 -3 -30q0 -22 13.5 -29.5t51.5 -7.5h131q33 0 63 36t47 93q1 3 6.5 2t4.5 -4q-17 -54 -30 -130q-2 -8 -5.5 -11.5t-10.5 -3.5h-404q-2 0 -2 6t2 6q34 0 50 5t24 19t14 45l82 463q3 18 3 31q0 23 -14 30.5t-52 7.5q-3 0 -3 6t3 6
h381q8 0 6 -9z" />
    <glyph glyph-name="F" unicode="F" horiz-adv-x="483" 
d="M506 616l-18 -122q-1 -4 -7 -3t-5 4q3 18 3 33q0 38 -17 60.5t-48 22.5h-99q-33 0 -49 -5t-23.5 -19t-13.5 -44l-38 -220h138q38 0 55 15.5t23 53.5q1 4 7 3.5t5 -4.5q-8 -48 -9 -51l-5 -27q-5 -26 -10 -63l-4 -28q-1 -4 -7 -3.5t-5 4.5q3 18 3 32q0 27 -13.5 38
t-46.5 11h-135l-38 -219q-4 -24 -4 -32q0 -24 21 -32.5t81 -8.5q2 0 2 -6t-2 -6q-35 0 -55 1l-82 1l-56 -1q-15 -1 -41 -1q-3 0 -3 6t3 6q33 0 49.5 5t24.5 19.5t14 44.5l81 463q4 17 4 32q0 21 -14.5 29t-52.5 8q-2 0 -2 6t2 6h382q8 0 5 -9z" />
    <glyph glyph-name="G" unicode="G" horiz-adv-x="630" 
d="M185.5 20q-59.5 32 -90.5 88.5t-31 130.5q0 33 6 69q17 95 75 169.5t142.5 116.5t180.5 42q41 0 76.5 -10t56.5 -28q6 -6 6 -13l-1 -10l-8 -105q-1 -4 -6.5 -4t-5.5 4q-3 71 -43.5 108t-113.5 37q-117 0 -195 -73t-102 -198q-8 -46 -8 -83q0 -77 28.5 -135t80.5 -89.5
t121 -31.5q46 0 72 9t42 35t24 77q8 43 8 63q0 19 -7.5 28.5t-25.5 12.5t-53 3q-2 0 -3.5 2.5t-1.5 5.5t1.5 5.5t3.5 2.5q63 -5 104 -5q39 0 82 3q4 0 4 -7t-4 -7q-22 1 -32.5 -6.5t-17.5 -30.5t-17 -80q-7 -44 -7.5 -62t-1.5 -26q-1 -6 -3 -7.5t-9 -4.5q-103 -28 -182 -28
q-85 0 -144.5 32z" />
    <glyph glyph-name="H" unicode="H" horiz-adv-x="670" 
d="M702 619q0 -6 -3 -6q-33 0 -49 -5.5t-24.5 -19.5t-13.5 -44l-82 -463q-3 -18 -3 -31q0 -23 14.5 -30.5t52.5 -7.5q3 0 3 -6t-3 -6q-26 0 -41 1l-57 1l-59 -1q-15 -1 -42 -1q-2 0 -2 6t2 6q34 0 50.5 5t24.5 19t13 45l41 235h-336l-42 -235q-4 -26 -4 -32
q0 -22 14.5 -29.5t52.5 -7.5q3 0 3 -6t-3 -6q-26 0 -41 1l-60 1l-58 -1q-14 -1 -39 -1q-3 0 -3 6t3 6q33 0 49.5 5t25 19.5t13.5 44.5l82 463q3 18 3 31q0 23 -14 30.5t-52 7.5q-2 0 -2 6t2 6l40 -1q36 -2 57 -2q22 0 60 2l41 1q2 0 2 -6t-2 -6q-33 0 -49.5 -6t-24.5 -20.5
t-14 -44.5l-37 -207h337l36 207q4 26 4 33q0 22 -14 30t-52 8q-3 0 -3 6t3 6l40 -1q36 -2 58 -2t58 2l41 1q3 0 3 -6z" />
    <glyph glyph-name="I" unicode="I" horiz-adv-x="301" 
d="M16 6q0 6 3 6q33 0 49.5 5t24.5 19.5t13 44.5l82 463q4 24 4 31q0 23 -14.5 30.5t-53.5 7.5q-3 0 -3 6t3 6l41 -1q36 -2 57 -2q27 0 63 2l39 1q2 0 2 -6t-2 -6q-33 0 -49.5 -6t-24.5 -20.5t-14 -44.5l-82 -461q-3 -19 -3 -31q0 -23 14 -30.5t54 -7.5q2 0 2 -6t-2 -6
q-25 0 -40 1l-61 1l-57 -1q-15 -1 -42 -1q-3 0 -3 6z" />
    <glyph glyph-name="J" unicode="J" horiz-adv-x="271" 
d="M-20 -193q-2 0 -4.5 4.5t-0.5 6.5q45 27 71.5 81.5t42.5 140.5l89 504q3 18 3 30q0 23 -14.5 31t-53.5 8q-2 0 -2 6t2 6l41 -1q36 -2 58 -2q27 0 63 2l38 1q3 0 3 -6t-3 -6q-33 0 -49.5 -6t-24.5 -20.5t-13 -44.5l-84 -475q-15 -79 -34 -127t-48.5 -78.5t-78.5 -54.5h-1z
" />
    <glyph glyph-name="K" unicode="K" horiz-adv-x="587" 
d="M612 619q0 -6 -3 -6q-35 0 -74.5 -15.5t-78.5 -53.5l-193 -169l101 -176q52 -90 80.5 -129t47 -48.5t48.5 -9.5q3 0 3 -6t-3 -6h-83q-31 0 -39.5 4.5t-43.5 69.5t-39 71l-112 195l-37 -31l-40 -228q-6 -36 -6 -42q0 -16 12 -21.5t46 -5.5q2 0 2 -6t-2 -6q-24 0 -37 1
l-53 1l-58 -1q-14 -1 -39 -1q-3 0 -3 6t3 6q33 0 49.5 5t25 19.5t13.5 44.5l82 463q3 18 3 31q0 23 -14 30.5t-52 7.5q-2 0 -2 6t2 6l40 -1q36 -2 57 -2q22 0 60 2l41 1q2 0 2 -6t-2 -6q-33 0 -49.5 -6t-24.5 -20.5t-14 -44.5l-38 -212l247 220q38 36 38 49q0 8 -11.5 11
t-35.5 3q-2 0 -2 6t2 6l35 -1q32 -2 60 -2q26 0 56 2l30 1q3 0 3 -6z" />
    <glyph glyph-name="L" unicode="L" horiz-adv-x="494" 
d="M9 6q0 6 3 6q33 0 49.5 5t24.5 19.5t13 44.5l82 463q3 18 3 31q0 23 -14 30.5t-52 7.5q-2 0 -2 6t2 6l40 -1q36 -2 57 -2q22 0 60 2l41 1q2 0 2 -6t-2 -6q-33 0 -49.5 -5.5t-24.5 -20t-14 -44.5l-81 -458q-3 -18 -3 -30q0 -22 13.5 -29.5t51.5 -7.5h120q51 0 82.5 34
t49.5 95q0 2 4 2q3 0 6 -1.5t2 -2.5q-19 -61 -31 -130q-2 -8 -5.5 -11.5t-10.5 -3.5h-414q-3 0 -3 6z" />
    <glyph glyph-name="M" unicode="M" horiz-adv-x="730" 
d="M766 619q0 -6 -2 -6q-45 0 -66.5 -13.5t-27.5 -53.5l-69 -465q-3 -18 -3 -29q0 -24 14 -32t53 -8q3 0 3 -6t-3 -6q-24 0 -39 1l-60 1l-58 -1q-15 -1 -41 -1q-3 0 -3 6t3 6q34 0 50.5 5t24.5 19.5t12 44.5l71 475l-296 -549q-2 -4 -7 -4t-7 5l-113 534l-2 8l-80 -446
q-4 -21 -4 -41q0 -28 11.5 -39.5t39.5 -11.5q3 0 3 -6t-3 -6q-19 0 -30 1l-43 1l-41 -1q-12 -1 -34 -1q-3 0 -3 6t3 6q36 0 54.5 20.5t28.5 71.5l87 475q-20 34 -62 34q-2 0 -2 6t2 6l30 -1q9 -1 23 -1q13 0 21 1t13 1q11 0 17 -10t13 -42l106 -492l280 519q7 11 15.5 18
t15.5 7q5 0 14.5 -1t22.5 -1l39 1q9 1 27 1q2 0 2 -6z" />
    <glyph glyph-name="N" unicode="N" horiz-adv-x="650" 
d="M683 619q0 -6 -2 -6q-36 0 -55.5 -21t-27.5 -72l-94 -531q-1 -3 -5.5 -3.5t-6.5 3.5l-285 554l-11 20l-79 -459q-4 -23 -4 -42q0 -27 12 -38.5t39 -11.5q2 0 2 -6t-2 -6q-20 0 -30 1l-44 1l-41 -1q-12 -1 -34 -1q-2 0 -2 6t2 6q36 0 55.5 21t27.5 71l84 478
q-25 31 -58 31q-3 0 -3 6t3 6l32 -1q10 -1 28 -1q14 0 23.5 1t14.5 1q6 0 9 -4t7 -15q1 -3 4.5 -13t8.5 -20l251 -493l77 440q4 23 4 42q0 28 -12 39.5t-39 11.5q-2 0 -2 6t2 6l30 -1q26 -2 44 -2q15 0 41 2l34 1q2 0 2 -6z" />
    <glyph glyph-name="O" unicode="O" horiz-adv-x="650" 
d="M167 20.5q-50 32.5 -76 90t-26 129.5q0 36 6 73q16 93 66 166.5t121.5 115t150.5 41.5q71 0 121.5 -32.5t76.5 -89t26 -128.5q0 -29 -7 -73q-17 -93 -68 -167.5t-123 -116t-150 -41.5q-68 0 -118 32.5zM481.5 77.5q64.5 63.5 89.5 182.5q11 53 11 99q0 74 -26 131.5
t-74.5 89.5t-113.5 32q-93 0 -157 -66t-86 -180q-9 -48 -9 -92q0 -74 24.5 -133t72.5 -93t114 -34q90 0 154.5 63.5z" />
    <glyph glyph-name="P" unicode="P" horiz-adv-x="496" 
d="M9 6q0 6 3 6q33 0 49.5 5t25 19.5t14.5 44.5l81 463q4 17 4 32q0 22 -14.5 29.5t-52.5 7.5q-2 0 -2 6t2 6l40 -1q36 -2 57 -2q11 0 47 2q46 4 77 4q71 0 117 -34.5t46 -101.5q0 -20 -4 -39q-11 -63 -51.5 -106t-93 -64t-101.5 -21q-25 0 -41 5q-2 0 -2 3t2 7t4 3
q13 -4 30 -4q42 0 82.5 17.5t71 53t40.5 86.5q4 20 4 43q0 64 -36.5 101.5t-89.5 37.5q-36 0 -51 -3.5t-23.5 -18.5t-15.5 -51l-81 -461q-4 -26 -4 -32q0 -22 14.5 -29.5t53.5 -7.5q2 0 2 -6t-2 -6q-26 0 -41 1l-61 1l-57 -1q-15 -1 -40 -1q-3 0 -3 6z" />
    <glyph glyph-name="Q" unicode="Q" horiz-adv-x="650" 
d="M681.5 -177q1.5 -5 -0.5 -7q-49 -11 -86 -11q-57 0 -119 52t-106 144q-45 -13 -85 -13q-68 0 -118 32.5t-76 90t-26 129.5q0 36 6 73q16 93 66 166.5t121.5 115t150.5 41.5q71 0 121.5 -32.5t76.5 -89t26 -128.5q0 -29 -7 -73q-17 -97 -71 -173t-130 -116
q25 -58 62 -103.5t77.5 -71.5t76.5 -26q18 0 36 4q3 1 4.5 -4zM116 274q0 -74 24.5 -133t72.5 -93t114 -34q90 0 154.5 63.5t89.5 182.5q11 53 11 99q0 74 -26 131.5t-74.5 89.5t-113.5 32q-93 0 -157 -66t-86 -180q-9 -48 -9 -92z" />
    <glyph glyph-name="R" unicode="R" horiz-adv-x="608" 
d="M586 6q0 -6 -4 -6h-97q-24 0 -74 83.5t-116 230.5q-32 -8 -60 -8q-22 0 -38 3l-40 -228q-4 -19 -4 -34q0 -21 14 -28t55 -7q4 0 4 -6t-3 -6q-28 0 -43 1l-61 1l-60 -1q-17 -1 -45 -1q-4 0 -4 6t4 6q35 0 53.5 5.5t27.5 19.5t15 44l82 463q4 26 4 31q0 23 -15 30.5
t-56 7.5q-4 0 -4 6t4 6l43 -1q38 -2 60 -2q16 0 30.5 1t25.5 2q28 3 51 3q68 0 102.5 -26t34.5 -77q0 -10 -4 -34q-10 -53 -46 -96t-87 -67q57 -121 98 -188.5t76 -97.5t73 -30q4 0 4 -6zM254 329q71 0 107 29.5t51 98.5q6 32 6 56q0 102 -107 102q-26 0 -38 -4t-20 -19
t-14 -50l-37 -210q25 -3 52 -3z" />
    <glyph glyph-name="S" unicode="S" horiz-adv-x="460" 
d="M118 -4.5q-30 7.5 -62 26.5q-4 3 -5 8t-1 11l10 130q0 5 5.5 5t5.5 -5q-3 -68 30 -118.5t104 -50.5q50 0 90 29t51 91q3 17 3 32q0 35 -15 61t-37.5 45t-59.5 44q-36 24 -58 42.5t-36.5 44.5t-14.5 61q0 14 3 29q9 50 39 85t72 52.5t87 17.5q51 0 105 -24q13 -7 12 -17
l-12 -106q0 -4 -6 -4t-6 4q0 56 -23 95t-84 39q-45 0 -75 -22t-44.5 -55.5t-14.5 -67.5q0 -32 15 -56.5t36.5 -42t58.5 -41.5q39 -25 61.5 -44t38.5 -46t16 -63q0 -18 -2 -28q-13 -73 -72 -121t-152 -48q-33 0 -63 7.5z" />
    <glyph glyph-name="T" unicode="T" horiz-adv-x="553" 
d="M146 6q0 6 3 6q33 0 49.5 5t24.5 19.5t13 44.5l82 463q3 18 3 30q0 21 -12.5 28t-46.5 7h-27q-43 0 -69 -13t-44 -42.5t-33 -84.5q0 -2 -4 -2q-3 0 -6 1.5t-2 2.5q8 24 22.5 83.5t20.5 92.5q1 3 7 2.5t5 -3.5q-3 -21 39 -21q74 -3 183 -3q51 0 113 2l63 1q30 0 45 5
t21 20q2 3 7 2.5t4 -4.5q-8 -26 -20.5 -83.5t-18.5 -93.5q-1 -3 -6.5 -2.5t-4.5 4.5q6 36 6 61q0 42 -21.5 58.5t-73.5 16.5h-27q-28 0 -42.5 -5.5t-21.5 -19.5t-12 -42l-81 -461q-3 -19 -3 -31q0 -23 14 -30.5t54 -7.5q2 0 2 -6t-2 -6q-25 0 -40 1l-61 1l-58 -1
q-15 -1 -41 -1q-3 0 -3 6z" />
    <glyph glyph-name="U" unicode="U" horiz-adv-x="618" 
d="M567 552q0 31 -15.5 46t-47.5 15q-4 0 -4 6t4 6l39 -1q30 -2 48 -2q17 0 45 2l35 1q4 0 4 -6t-4 -6q-37 0 -58.5 -23t-30.5 -71l-50 -286q-21 -117 -90 -181.5t-167 -64.5q-85 0 -132 47.5t-47 131.5q0 29 6 60l56 319q3 18 3 30q0 23 -14.5 30.5t-55.5 7.5q-3 0 -3 6
t3 6l45 -1q36 -2 58 -2q27 0 65 2l39 1q4 0 4 -6t-4 -6q-35 0 -53 -6t-26.5 -21t-13.5 -46l-51 -282q-7 -38 -7 -73q0 -83 39.5 -126t109.5 -43q83 0 141 58.5t75 159.5l52 288q3 17 3 30z" />
    <glyph glyph-name="V" unicode="V" horiz-adv-x="591" 
d="M659 619q0 -6 -4 -6q-28 0 -50.5 -14.5t-43.5 -54.5l-281 -543q-3 -4 -11 -4t-9 4l-114 541q-7 39 -21.5 55t-40.5 16q-2 0 -2 6t2 6l35 -1q26 -2 37 -2q25 0 59 2l36 1q4 0 4 -6t-4 -6q-29 0 -44 -9t-15 -32q0 -13 2 -20l104 -476l246 474q12 26 12 35q0 15 -14.5 21.5
t-46.5 6.5q-3 0 -3 6t3 6l32 -1q30 -2 52 -2q16 0 40 2l36 1q4 0 4 -6z" />
    <glyph glyph-name="W" unicode="W" horiz-adv-x="821" 
d="M888 619q0 -6 -4 -6q-29 0 -51 -14.5t-42 -54.5l-283 -543q-1 -4 -10 -4q-8 0 -9 4l-61 286l-148 -286q-3 -4 -11 -4t-9 4l-114 541q-7 39 -21.5 55t-40.5 16q-3 0 -3 6t3 6l35 -1q26 -2 37 -2q25 0 59 2l36 1q4 0 4 -6t-4 -6q-29 0 -44 -9t-15 -32q0 -13 2 -20l105 -482
l124 242l-49 230q-8 40 -21.5 55.5t-40.5 15.5q-3 0 -3 6t3 6l36 -1q24 -2 37 -2q19 0 41 2l24 1q5 0 5 -6t-5 -6q-19 0 -26 -4t-7 -17t6 -40l38 -177l90 175q15 29 15 42q0 21 -36 21q-4 0 -4 6t4 6l22 -1q18 -2 33 -2q17 0 39 2l37 1q3 0 3 -6t-3 -6q-29 0 -51.5 -14.5
t-42.5 -54.5l-100 -194l60 -280l247 480q12 23 12 35q0 15 -15 21.5t-48 6.5q-4 0 -4 6t4 6l35 -1q28 -2 50 -2q16 0 40 2l36 1q4 0 4 -6z" />
    <glyph glyph-name="X" unicode="X" horiz-adv-x="579" 
d="M620 619q0 -6 -5 -6q-56 0 -130 -90l-150 -189l97 -251q14 -39 35.5 -55t58.5 -16q4 0 4 -6t-4 -6q-22 0 -35 1l-47 1l-65 -1q-16 -1 -42 -1q-4 0 -4 6t4 6q27 0 39.5 5t12.5 17q0 3 -4 17l-93 239l-155 -198q-28 -36 -28 -55q0 -25 44 -25q4 0 4 -6t-4 -6q-25 0 -37 1
l-58 1l-34 -1q-10 -1 -32 -1q-4 0 -4 6t4 6q29 0 61.5 20.5t63.5 59.5l169 214l-91 236q-15 39 -34 55t-50 16q-4 0 -4 6t4 6l31 -1q22 -2 31 -2q30 0 72 2l44 1q4 0 4 -6t-4 -6q-27 0 -39 -5t-12 -17q0 -9 4 -18l87 -225l136 176q32 41 32 63q0 26 -42 26q-4 0 -4 6t4 6
l37 -1q30 -2 58 -2q14 0 34 2l31 1q5 0 5 -6z" />
    <glyph glyph-name="Y" unicode="Y" horiz-adv-x="527" 
d="M603 619q0 -6 -4 -6q-63 0 -130 -90l-159 -215l-40 -227q-4 -26 -4 -32q0 -22 14.5 -29.5t52.5 -7.5q4 0 4 -6t-4 -6q-26 0 -40 1l-58 1l-61 -1q-14 -1 -39 -1q-4 0 -4 6t4 6q33 0 50 5.5t25 19.5t13 44l38 220l-102 241q-17 39 -35 55t-48 16q-4 0 -4 6t4 6l30 -1
q22 -2 32 -2q26 0 68 2l47 1q2 0 2 -4q0 -3 -1.5 -5.5t-3.5 -2.5q-26 0 -37.5 -5t-11.5 -16q0 -7 5 -19l102 -246l141 197q29 41 29 62q0 27 -41 27q-3 0 -3 6t3 6l39 -1q32 -2 56 -2q15 0 35 2l32 1q4 0 4 -6z" />
    <glyph glyph-name="Z" unicode="Z" horiz-adv-x="545" 
d="M26 0q-4 0 -5 4.5t1 8.5l467 587q5 5 4.5 6.5t-6.5 1.5q-175 0 -235.5 -5t-83.5 -24t-50 -78q-2 -4 -7 -2.5t-3 5.5l62 151q0 1 3 1t6 -1.5t2 -3.5q-2 -5 -2 -12q0 -9 9.5 -11.5t37.5 -2.5h328q4 0 6 -5t-1 -8l-462 -585q-4 -5 -3.5 -6.5t5.5 -1.5h239q63 0 96.5 25
t53.5 87q0 3 4 3q3 0 5.5 -1.5t1.5 -3.5l-34 -121q0 -3 -2.5 -6.5t-6.5 -3.5q-133 2 -430 2z" />
    <glyph glyph-name="bracketleft" unicode="[" horiz-adv-x="247" 
d="M31 -115q-1 2 1 9l145 821q1 7 2.5 8.5t6.5 1.5h120q4 0 4 -6t-4 -6q-37 0 -56.5 -6t-28.5 -20.5t-14 -44.5l-119 -676q-4 -24 -4 -31q0 -23 16.5 -31.5t59.5 -8.5q5 0 5 -6t-5 -6h-123q-5 0 -6 2z" />
    <glyph glyph-name="backslash" unicode="\" horiz-adv-x="305" 
d="M115 723q-1 4 6 7t15 3q12 0 13 -6l72 -886q1 -4 -6.5 -6.5t-15.5 -2.5q-12 0 -12 5z" />
    <glyph glyph-name="bracketright" unicode="]" horiz-adv-x="247" 
d="M256 723q1 -2 -1 -9l-145 -821q-1 -7 -2.5 -8.5t-6.5 -1.5h-120q-4 0 -4 6t4 6q37 0 56.5 6t28.5 20.5t14 44.5l119 676q4 24 4 31q0 23 -16.5 31.5t-59.5 8.5q-4 0 -4 6t4 6h123q5 0 6 -2z" />
    <glyph glyph-name="asciicircum" unicode="^" horiz-adv-x="353" 
d="M93 374q-3 0 -6 2t-2 4l158 249q3 5 11 5q9 0 9 -5l70 -249q0 -2 -4.5 -4t-5.5 1l-82 180l-145 -182q-1 -1 -3 -1z" />
    <glyph glyph-name="underscore" unicode="_" horiz-adv-x="363" 
d="M-10.5 -68.5q-1.5 6.5 -1.5 13.5t1 12.5t3 5.5h319q2 0 3.5 -6t1.5 -13t-1.5 -13t-3.5 -6h-318q-2 0 -3.5 6.5z" />
    <glyph glyph-name="grave" unicode="`" horiz-adv-x="166" 
d="M135 727q-1 5 10.5 3.5t23.5 -6t12 -8.5v-240q0 -2 -4.5 -3t-4.5 2z" />
    <glyph glyph-name="a" unicode="a" horiz-adv-x="432" 
d="M411 78q3 0 5 -3.5t0 -5.5q-35 -40 -61.5 -59t-50.5 -19q-16 0 -23 9.5t-7 31.5q0 21 6 57l19 111q-47 -96 -106.5 -154.5t-112.5 -58.5q-60 0 -60 74q0 8 2 30q10 71 52.5 143t99.5 118.5t108 46.5q19 0 36 -7t28 -21q19 17 22 36q1 3 7 2t5 -3l-58 -317q-3 -16 -3 -28
q0 -33 19 -33q23 0 70 49q1 1 3 1zM189 68q43 38 77.5 97.5t46.5 117.5q2 8 2 22q0 28 -16 45t-46 17q-37 0 -76 -32t-68.5 -87t-39.5 -121q-3 -21 -3 -38q0 -59 43 -59q37 0 80 38z" />
    <glyph glyph-name="b" unicode="b" horiz-adv-x="430" 
d="M391 371q22 -28 22 -75q0 -18 -5 -45q-16 -82 -60.5 -142t-99.5 -91t-103 -31q-43 0 -69.5 19.5t-26.5 52.5q0 4 2 16l105 552q2 12 2 17q0 26 -23 26q-19 0 -51 -16h-2q-4 0 -5 5t3 6l122 60h2q4 0 7 -3t2 -5l-93 -508q34 83 92 136.5t119 53.5q38 0 60 -28zM358 275
q0 39 -15.5 61.5t-48.5 22.5q-43 0 -82 -33t-68.5 -92.5t-44.5 -137.5q-1 -5 -1 -13q0 -32 24.5 -51.5t64.5 -19.5q34 0 67.5 25t59.5 72t38 111q6 30 6 55z" />
    <glyph glyph-name="c" unicode="c" horiz-adv-x="345" 
d="M61.5 32q-31.5 45 -31.5 110q0 32 6 60q13 61 46.5 105.5t77.5 68t88 23.5q37 0 62 -16.5t22 -40.5q-1 -12 -8 -20.5t-20 -8.5q-22 0 -33 29q-4 14 -18 25.5t-38 11.5q-51 0 -82.5 -41t-43.5 -106q-7 -40 -7 -66q0 -65 28 -106.5t83 -41.5q33 0 58 13t53 36l2 1
q3 0 5.5 -4t0.5 -6q-81 -71 -156 -71q-63 0 -94.5 45z" />
    <glyph glyph-name="d" unicode="d" horiz-adv-x="443" 
d="M332 89q-3 -16 -3 -28q0 -33 21 -33q20 0 69 49q2 2 3 2q3 0 5.5 -3.5t-0.5 -6.5q-36 -40 -62 -59t-50 -19q-17 0 -24.5 9.5t-7.5 31.5q0 23 7 57l20 105q-46 -97 -98 -152t-108 -55q-35 0 -57.5 23.5t-22.5 73.5q0 22 4 42q13 73 54 135.5t98 100t115 37.5q29 0 51 -16
l46 244q2 12 2 17q0 26 -23 26q-19 0 -51 -16h-2q-3 0 -4.5 5t2.5 6l123 60h2q3 0 6 -3t2 -5zM223.5 81.5q45.5 51.5 75 119t29.5 105.5q0 29 -16 45t-45 16q-70 0 -122.5 -53.5t-69.5 -150.5q-4 -23 -4 -46q0 -43 16 -65t45 -22q46 0 91.5 51.5z" />
    <glyph glyph-name="e" unicode="e" horiz-adv-x="339" 
d="M290 296.5q-33 -28.5 -88 -50t-118 -31.5q-5 -25 -5 -56q0 -64 28 -101.5t80 -37.5q58 0 103 33h2q3 0 5.5 -3t-0.5 -6q-71 -56 -143 -56q-62 0 -94 40t-32 104q0 23 5 53q9 50 42 100t81.5 82t101.5 32q31 0 48 -11.5t17 -31.5q0 -31 -33 -59.5zM132.5 332
q-32.5 -40 -45.5 -103q74 12 121 36t56 59q2 5 2 14q0 18 -15 26t-36 8q-50 0 -82.5 -40z" />
    <glyph glyph-name="f" unicode="f" horiz-adv-x="260" 
d="M368.5 710.5q18.5 -15.5 16.5 -35.5q-5 -26 -31 -26q-11 0 -16.5 7t-12.5 22q-7 16 -15 25t-23 9q-81 0 -120 -273l-9 -63l77 4l28 2q7 0 7 -6q0 -8 -12 -21.5t-22 -11.5l-31.5 4.5t-49.5 4.5l-54 -373q-14 -97 -31.5 -151.5t-43.5 -78.5t-67 -24q-31 0 -45 11.5
t-12 28.5q1 12 10 20t24 8q13 0 19 -7t11 -20q5 -12 10 -17.5t15 -5.5q13 0 21.5 15.5t18 60t22.5 134.5l51 353l2 25q0 20 -11.5 25t-47.5 5q-3 0 -3 5q0 2 1.5 4.5t2.5 2.5q37 0 52.5 10t19.5 35q20 123 44 188.5t60 92.5t94 27q32 0 50.5 -15.5z" />
    <glyph glyph-name="g" unicode="g" horiz-adv-x="377" 
d="M387 382q0 -11 -4.5 -23t-8.5 -10q-21 9 -48 9q-9 0 -29 -2q21 -27 21 -70q0 -17 -5 -40q-9 -43 -34 -77t-59.5 -52.5t-69.5 -18.5q-13 0 -25 3q-16 -17 -17 -36q-3 -26 20 -45t71 -43q56 -29 85 -53.5t29 -61.5q0 -36 -28 -69t-76 -53.5t-103 -20.5q-69 0 -109 29.5
t-40 72.5q0 44 36.5 77.5t109.5 75.5q-36 26 -36 56q0 7 1 11q4 16 14 31t29 33q-29 11 -45 38t-16 63q0 17 5 40q12 63 59 104.5t106 41.5q40 0 66 -23q51 24 96 24q5 0 5 -11zM271 252q0 50 -19.5 86.5t-56.5 36.5q-32 0 -59.5 -28.5t-34.5 -70.5q-4 -17 -4 -39
q0 -49 20.5 -85t57.5 -36q32 0 58 26.5t35 71.5q3 18 3 38zM245 -113.5q-28 23.5 -81 51.5q-30 15 -51 29q-36 -20 -57 -34.5t-36 -36t-15 -49.5q0 -44 41 -72.5t107 -28.5q56 0 88 23t32 59q0 35 -28 58.5z" />
    <glyph glyph-name="h" unicode="h" horiz-adv-x="443" 
d="M424 79q3 0 5 -3.5t-1 -6.5q-35 -40 -61.5 -59t-50.5 -19q-17 0 -24 9.5t-7 32.5q0 20 6 56l29 159q6 33 6 57q0 60 -45 60q-34 0 -70.5 -43t-69 -124.5t-52.5 -191.5q-1 -6 -8 -10t-18 -4q-21 0 -21 6l4 21q2 7 5.5 24t5.5 31l104 553q2 14 2 18q0 25 -22 25
q-19 0 -51 -16h-2q-4 0 -5 4.5t2 6.5l123 60h2q4 0 7 -3t2 -5l-100 -547q37 107 86.5 168t103.5 61q32 0 47.5 -17.5t15.5 -55.5q0 -24 -6 -59l-33 -178q-3 -16 -3 -28q0 -33 20 -33q23 0 70 49q2 2 4 2z" />
    <glyph glyph-name="i" unicode="i" horiz-adv-x="247" 
d="M142.5 527q-10.5 10 -10.5 29q0 17 10.5 27t29.5 10t29 -10t10 -27q0 -19 -10 -29t-29 -10t-29.5 10zM85 0.5q-8 9.5 -8 33.5q0 23 7 55l41 208q3 17 3 28q0 16 -5.5 24.5t-14.5 8.5q-12 0 -31.5 -12t-40.5 -35q-1 -1 -3 -1q-3 0 -5.5 3.5t0.5 5.5q34 39 62 57.5t52 18.5
q17 0 24.5 -9.5t7.5 -31.5q0 -23 -7 -57l-40 -208q-3 -16 -3 -29q0 -32 20 -32q12 0 31 12.5t40 34.5q1 1 3 1q4 0 6 -3.5t-1 -5.5q-66 -76 -113 -76q-17 0 -25 9.5z" />
    <glyph glyph-name="j" unicode="j" horiz-adv-x="237" 
d="M152.5 527q-10.5 10 -10.5 29q0 17 10.5 27t29.5 10t29 -10t10 -27q0 -19 -10 -29t-29 -10t-29.5 10zM-64 -264.5q-14 10.5 -14 25.5t9 23.5t21 8.5q10 0 14.5 -7t8.5 -20q5 -14 9.5 -20.5t13.5 -6.5q23 0 38 43t34 154l62 361q3 17 3 28q0 33 -20 33q-12 0 -31 -12
t-41 -35q-1 -1 -3 -1q-3 0 -5.5 3.5t0.5 5.5q34 39 62 57.5t53 18.5q16 0 23 -9.5t7 -31.5q0 -21 -6 -57l-58 -339q-16 -94 -33 -143t-41.5 -69.5t-64.5 -20.5q-27 0 -41 10.5z" />
    <glyph glyph-name="k" unicode="k" horiz-adv-x="418" 
d="M405 76q4 0 6 -3.5t0 -5.5q-67 -76 -106 -76q-22 0 -38.5 14.5t-38.5 52.5l-58 102q-9 15 -16.5 21.5t-18.5 6.5q-3 0 -13 -2l-33 -180q-1 -6 -8 -10t-18 -4q-21 0 -21 6l4 21q2 7 5.5 24t5.5 31l104 553q2 14 2 18q0 25 -22 25q-19 0 -51 -16h-2q-4 0 -5 4.5t2 6.5
l123 60h2q4 0 7 -3t2 -5l-76 -416q37 45 84 71.5t96 26.5q28 0 40 -14.5t12 -33.5q0 -9 -1 -12q-7 -35 -53 -69t-122 -61l68 -119q20 -35 34.5 -47.5t30.5 -12.5q28 0 70 45q1 1 3 1zM187 327.5q-43 -44.5 -61 -119.5l-2 -9q96 23 137.5 49.5t51.5 75.5q2 10 2 15
q0 15 -8.5 24t-22.5 9q-54 0 -97 -44.5z" />
    <glyph glyph-name="l" unicode="l" horiz-adv-x="235" 
d="M65 1q-8 10 -8 33q0 15 7 55l101 538q2 14 2 18q0 25 -21 25q-18 0 -50 -16h-2q-4 0 -5.5 5t2.5 6l123 60h2q4 0 7 -3t2 -5l-117 -628q-4 -22 -4 -29q0 -15 6 -23.5t15 -8.5q22 0 69 49q2 2 4 2q3 0 5 -3.5t-1 -6.5q-35 -40 -61.5 -59t-50.5 -19q-17 0 -25 10z" />
    <glyph glyph-name="m" unicode="m" horiz-adv-x="674" 
d="M654 79q3 0 5 -3.5t-1 -6.5q-35 -40 -61.5 -59t-50.5 -19q-16 0 -23 9.5t-7 31.5q0 21 6 57l29 159q5 28 5 56q0 61 -41 61q-33 0 -69 -43t-67.5 -124.5t-51.5 -191.5q-1 -6 -7.5 -10t-17.5 -4q-13 0 -16.5 1.5t-3.5 4.5l5 23l10 53l32 174q4 28 4 54q0 32 -9 47.5
t-29 15.5q-32 0 -68 -43t-67.5 -124.5t-51.5 -191.5q-2 -6 -8.5 -10t-17.5 -4q-13 0 -16.5 1.5t-3.5 4.5t10 49l4 21l42 229q3 17 3 28q0 33 -20 33q-12 0 -31.5 -12t-40.5 -35q-1 -1 -3 -1q-3 0 -5.5 3.5t0.5 5.5q66 76 115 76q16 0 23 -9.5t7 -31.5q0 -21 -6 -57l-22 -125
q35 106 83.5 166.5t101.5 60.5q29 0 43.5 -17t14.5 -54q0 -27 -7 -61l-18 -100q36 108 85 170t102 62q30 0 44.5 -17.5t14.5 -55.5q0 -24 -6 -59l-32 -178q-3 -16 -3 -28q0 -33 19 -33q23 0 70 49q2 2 4 2z" />
    <glyph glyph-name="n" unicode="n" horiz-adv-x="463" 
d="M443 79q3 0 5.5 -3.5t-0.5 -6.5q-35 -40 -61.5 -59t-50.5 -19q-17 0 -24 9.5t-7 32.5q0 20 6 56l29 159q7 31 7 57q0 60 -46 60q-34 0 -70.5 -43t-69 -124.5t-52.5 -191.5q-1 -6 -8 -10t-18 -4q-13 0 -17 1.5t-4 4.5l4 21q2 7 5.5 24t5.5 31l41 223q3 17 3 28
q0 33 -20 33q-12 0 -31.5 -12t-40.5 -35q-1 -1 -3 -1q-3 0 -5.5 3.5t0.5 5.5q66 76 115 76q16 0 23 -9.5t7 -31.5q0 -21 -6 -57l-23 -133q36 110 86.5 172.5t105.5 62.5q33 0 48.5 -17.5t15.5 -54.5q0 -20 -7 -60l-33 -178q-3 -16 -3 -27q0 -34 21 -34q22 0 69 49q2 2 3 2z
" />
    <glyph glyph-name="o" unicode="o" horiz-adv-x="396" 
d="M62 28q-33 42 -33 111q0 30 5 54q11 57 41.5 104.5t74.5 74.5t92 27q61 0 94.5 -42.5t33.5 -108.5q0 -26 -6 -55q-12 -61 -45 -108t-77 -73t-89 -26q-58 0 -91 42zM269.5 48q36.5 37 48.5 101q5 28 5 54q0 69 -28.5 120.5t-81.5 51.5q-46 0 -83 -38.5t-50 -100.5
q-6 -27 -6 -56q0 -69 30.5 -119t83.5 -50q45 0 81.5 37z" />
    <glyph glyph-name="p" unicode="p" horiz-adv-x="407" 
d="M356.5 366.5q24.5 -26.5 24.5 -77.5q0 -16 -3 -36q-9 -67 -44.5 -125.5t-86 -93.5t-102.5 -35q-34 0 -62 4l-32 -181q-3 -17 -3 -27q0 -19 9 -27.5t29 -8.5q5 0 25 2h1q3 0 4 -5t-3 -6l-168 -25q-4 -1 -5 5t3 7q24 4 35 10t16.5 20.5t11.5 47.5l84 473l-42 -33h-1
q-3 0 -6.5 4t-0.5 5q36 32 54 46l14 76q0 2 11.5 14t21 26t12.5 32q0 3 5 3q2 0 4.5 -1.5t1.5 -3.5l-20 -111q78 48 141 48q47 0 71.5 -26.5zM333 263q0 45 -18.5 71t-64.5 26q-27 0 -53 -9.5t-57 -28.5l-49 -278q34 -17 80 -17q67 0 107 52.5t52 140.5q3 23 3 43z" />
    <glyph glyph-name="q" unicode="q" horiz-adv-x="413" 
d="M276 -178q-3 -15 -3 -26q0 -19 9.5 -28t31.5 -9q6 0 22 2h1q3 0 4 -5t-3 -6l-167 -25q-4 -1 -5 5t2 7q24 4 35 10t17 20.5t12 47.5l62 350q-38 -84 -91 -131t-105 -47q-33 0 -53.5 27.5t-20.5 70.5q0 12 1 18q9 77 48.5 145.5t96 109.5t113.5 41q19 0 36 -7t28 -21
q19 15 23 36q1 3 6.5 2t4.5 -3zM202 60.5q39 30.5 68 82.5t40 115q4 30 4 40q0 36 -15.5 53.5t-45.5 15.5q-67 -2 -117.5 -62t-64.5 -166q-1 -9 -1 -26q0 -83 52 -83q41 0 80 30.5z" />
    <glyph glyph-name="r" unicode="r" horiz-adv-x="336" 
d="M324 379q17 -16 13 -36q-6 -24 -29 -24q-11 0 -17 5t-12 15q-3 5 -7.5 9.5t-10.5 4.5q-23 0 -54.5 -59t-60 -142t-41.5 -146q-1 -6 -7.5 -10t-17.5 -4q-13 0 -16.5 1.5t-3.5 4.5l5 23l10 53l31 175q7 35 7 60q0 49 -26 49q-23 0 -61 -36l-2 -1q-2 0 -4.5 3.5t-1.5 5.5
q57 65 104 65q18 0 27.5 -13t9.5 -45q0 -34 -10 -88l-21 -114q35 107 78 183.5t81 76.5q20 0 37 -16z" />
    <glyph glyph-name="s" unicode="s" horiz-adv-x="298" 
d="M38 5q-26 16 -26 39q0 13 8 21t19 8q7 0 11.5 -5t11.5 -17q11 -21 23.5 -32t39.5 -11q30 0 48 16.5t22 49.5q1 5 1 14q0 29 -16 49.5t-49 48.5q-32 27 -48 47.5t-16 48.5q0 5 2 17q8 46 46.5 71.5t82.5 25.5q31 0 53.5 -13t22.5 -30q0 -14 -8.5 -21t-18.5 -7
q-9 0 -15 4.5t-16 15.5q-11 14 -22.5 22t-30.5 8q-24 0 -40 -13.5t-16 -42.5q0 -27 16 -48.5t47 -48.5q32 -29 49 -51.5t17 -52.5q0 -33 -19 -62.5t-50.5 -48t-67.5 -18.5q-35 0 -61 16z" />
    <glyph glyph-name="t" unicode="t" horiz-adv-x="294" 
d="M294 374q-3 -9 -13 -20t-19 -11q-5 0 -40.5 4.5t-68.5 5.5l-45 -251q-4 -24 -4 -32q0 -25 12 -37t37 -12q28 0 51 12t49 35h1q3 0 6 -3t1 -5q-44 -38 -77.5 -55t-63.5 -17q-28 0 -46 14.5t-18 45.5q0 6 2 20l44 238q4 19 4 33t-8 18t-30 4q-3 0 -3 5q0 2 1.5 4.5t2.5 2.5
q32 0 55.5 20.5t29.5 53.5q0 3 8 3q10 0 8 -3l-13 -72q51 2 97 5l33 2q9 0 7 -8z" />
    <glyph glyph-name="u" unicode="u" horiz-adv-x="462" 
d="M436 76q3 0 5.5 -3.5t-0.5 -5.5q-34 -39 -62 -57.5t-53 -18.5q-16 0 -23 9.5t-7 31.5q0 21 6 57l23 133q-36 -110 -86.5 -172.5t-105.5 -62.5q-33 0 -49 17t-16 54q0 23 8 61l36 178q3 17 3 28q0 16 -5.5 24.5t-14.5 8.5q-22 0 -69 -49q-2 -2 -4 -2q-3 0 -5 3.5t1 6.5
q35 40 61.5 59t50.5 19q16 0 24 -9.5t8 -31.5q0 -19 -8 -57l-32 -159q-7 -32 -7 -58q0 -59 46 -59q34 0 70.5 43t69 124.5t52.5 191.5q1 6 8 10t18 4q21 0 21 -6l-4 -21q-2 -7 -5.5 -24t-5.5 -31l-41 -223q-3 -16 -3 -28q0 -33 20 -33q12 0 31.5 12t40.5 35q1 1 3 1z" />
    <glyph glyph-name="v" unicode="v" horiz-adv-x="428" 
d="M118.5 20.5q-22.5 33.5 -22.5 81.5q0 35 13.5 73t42.5 102q4 7 19 40q4 8 4 15q0 10 -15 10h-52q-27 0 -39.5 -3.5t-19.5 -14.5t-16 -37q-1 -3 -5 -3q-3 0 -5 2t-1 6q15 45 26 64t26 25t46 6h88q11 0 11 -4q0 -2 -3 -8q-76 -173 -76 -255q0 -43 18 -67t49 -24
q46 0 89 45.5t64 119.5q10 34 10 66q0 47 -28 71q-1 1 -12 9.5t-11 25.5q0 15 11 22.5t24 7.5q22 0 32.5 -26.5t10.5 -67.5q0 -30 -5 -63q-12 -76 -46 -133t-78 -88t-84 -31q-43 0 -65.5 33.5z" />
    <glyph glyph-name="w" unicode="w" horiz-adv-x="616" 
d="M584 302q0 -36 -4 -63q-11 -75 -43 -132.5t-72 -88.5t-73 -31q-26 0 -47 19.5t-34 52.5q-31 -36 -64 -54t-63 -18q-43 0 -65.5 33.5t-22.5 81.5q0 35 15 77.5t42 98.5l18 39q4 8 4 15q0 10 -15 10h-52q-27 0 -39.5 -3.5t-19.5 -14.5t-16 -37q-1 -3 -5 -3q-3 0 -5 2t-1 6
q15 45 26 64t26 25t46 6h88q11 0 11 -4q0 -2 -3 -8q-26 -59 -45 -119.5t-25 -106.5q-2 -22 -2 -31q0 -44 16.5 -68.5t46.5 -24.5q24 0 49.5 14.5t47.5 41.5q-12 39 -12 86q0 32 6 65q10 66 32 113t45 47q17 0 25.5 -19t8.5 -50q0 -22 -4 -41q-20 -116 -72 -193
q14 -31 35 -47.5t47 -16.5q24 0 52 21.5t50.5 60t31.5 87.5q5 26 5 54q0 34 -8 52.5t-23 36.5q-8 9 -11.5 15t-3.5 14q0 15 11 22.5t24 7.5q41 0 41 -94zM314 199q0 -49 11 -88q40 61 52 145q2 11 2 30q0 24 -6.5 37.5t-18.5 13.5q-15 0 -23.5 -22.5t-12.5 -53.5
q-4 -28 -4 -62z" />
    <glyph glyph-name="x" unicode="x" horiz-adv-x="419" 
d="M393.5 383q14.5 -12 14.5 -28q0 -12 -7 -18.5t-17 -6.5q-11 0 -22 9q-10 8 -19 8q-26 0 -48 -32l-68 -99l38 -133q10 -33 21.5 -43t25.5 -10q28 0 70 45q1 1 3 1q4 0 6 -3.5t0 -5.5q-67 -76 -106 -76q-20 0 -34 12.5t-24 47.5l-33 116l-65 -104q-28 -45 -43 -58.5
t-38 -13.5q-19 0 -34 13.5t-13 31.5q5 20 25 20q12 0 21 -9q10 -8 20 -8q25 0 48 32l74 112l-31 109q-18 64 -52 64q-13 0 -31 -11.5t-39 -33.5q-1 -1 -3 -1q-3 0 -5.5 3.5t0.5 5.5q34 39 59.5 57.5t45.5 18.5t36 -15t27 -55l27 -93l58 91q28 45 43 58.5t37 13.5
q18 0 32.5 -12z" />
    <glyph glyph-name="y" unicode="y" horiz-adv-x="440" 
d="M402 345q0 -84 -76.5 -236.5t-177 -271t-167.5 -118.5q-17 0 -27 9.5t-8 27.5q5 22 35 22q32 0 64.5 8.5t55.5 25.5q32 22 86 98l1 48q0 188 -31.5 292t-85.5 104q-32 0 -52 -38q-1 -3 -6 -3q-7 0 -6 6q19 39 39.5 57.5t47.5 18.5q43 0 74 -48.5t47 -133t16 -188.5
q0 -35 -1 -53q44 70 78 137t44 107q5 25 5 43q0 37 -14 86q-5 17 -5 23q0 12 8 20t22 8q34 0 34 -51z" />
    <glyph glyph-name="z" unicode="z" horiz-adv-x="344" 
d="M348 397q3 0 5 -3.5t0 -5.5l-288 -331q11 7 36 7q24 0 96 -13q58 -10 73 -10q16 0 25 10t20 38q0 1 3 1t6 -1.5t2 -3.5q-14 -41 -23 -59.5t-19.5 -24.5t-28.5 -6q-24 0 -57.5 6t-42.5 7q-62 13 -99 14q-16 0 -28 -6t-27 -23h-1q-2 0 -4.5 3.5t-1.5 4.5l291 333
q-13 -9 -38 -9q-15 0 -38 4t-45 9q-46 11 -63 11q-16 0 -25 -11.5t-21 -39.5q-1 -3 -4 -3t-5.5 2.5t-1.5 6.5q16 44 25.5 62t21 23.5t34.5 4.5q21 -1 77 -13q59 -12 89 -14q16 0 28 6t27 23z" />
    <glyph glyph-name="braceleft" unicode="{" horiz-adv-x="260" 
d="M94 -100q-22 17 -22 66q0 34 13 114q13 78 13 121q0 90 -51 97q-3 0 -3 6.5t3 6.5q49 6 75 65t43 153q15 86 31.5 126.5t43.5 55t79 14.5q3 0 3 -6t-3 -6q-37 0 -61 -27.5t-33 -78.5q-25 -124 -39 -173t-37.5 -77.5t-73.5 -51.5q37 -21 51.5 -45.5t14.5 -68.5
q0 -29 -5.5 -70.5t-17.5 -119.5q-3 -20 -3 -36q0 -34 15 -52t43 -18q3 0 3 -6t-3 -6q-57 0 -79 17z" />
    <glyph glyph-name="bar" unicode="|" horiz-adv-x="152" 
d="M19 -160q-8 0 -14 2.5t-5 6.5l154 882q1 5 14 5q8 0 14.5 -2.5t5.5 -6.5l-155 -881q-1 -6 -14 -6z" />
    <glyph glyph-name="braceright" unicode="}" horiz-adv-x="260" 
d="M205 708q22 -17 22 -66q0 -34 -13 -114q-13 -78 -13 -121q0 -90 51 -97q3 0 3 -6.5t-3 -6.5q-49 -6 -75 -65t-43 -153q-15 -86 -31.5 -126.5t-43.5 -55t-79 -14.5q-3 0 -3 6t3 6q37 0 61 27.5t33 78.5q25 124 39 173t37.5 77.5t73.5 51.5q-37 21 -51.5 45.5t-14.5 68.5
q0 29 5.5 70.5t17.5 119.5q3 20 3 36q0 34 -15 52t-43 18q-3 0 -3 6t3 6q57 0 79 -17z" />
    <glyph glyph-name="asciitilde" unicode="~" horiz-adv-x="443" 
d="M54 154q-2 0 -4.5 2.5t-1.5 4.5q56 69 111 69q14 0 32 -5t36 -11q26 -10 46 -15t40 -5q29 0 44.5 10t31.5 29h1q3 0 5.5 -2.5t0.5 -4.5q-34 -41 -56 -55t-48 -14q-19 0 -36.5 4.5t-42.5 13.5q-26 9 -44 13.5t-39 4.5q-24 0 -36.5 -7t-23.5 -17.5t-15 -14.5h-1z" />
    <glyph glyph-name="uni00A0" unicode="&#xa0;" horiz-adv-x="234" 
 />
    <glyph glyph-name="exclamdown" unicode="&#xa1;" horiz-adv-x="220" 
d="M171.5 354.5q10.5 -10.5 10.5 -28.5q0 -17 -10.5 -27t-28.5 -10q-19 0 -29 10t-10 27q0 18 10 28.5t29 10.5q18 0 28.5 -10.5zM113.5 167.5q5.5 -0.5 4.5 -5.5l-9 -67q-17 -120 -27 -204t-12 -158q0 -4 -11.5 -8t-24.5 -4q-14 0 -25 4t-10 8q26 79 49 172.5t50 215.5
l9 42q1 5 6.5 4.5z" />
    <glyph glyph-name="cent" unicode="&#xa2;" horiz-adv-x="487" 
d="M466.5 443.5q1.5 -2.5 0.5 -10.5l-9 -101q0 -5 -5.5 -5t-5.5 5q0 67 -35.5 100t-98.5 35l-83 -466q6 -1 17 -1q57 0 102.5 35t71.5 105q2 3 5 3t5.5 -1.5t1.5 -3.5l-32 -106q-1 -8 -3.5 -10.5t-10.5 -7.5q-77 -26 -148 -26h-11l-16 -91q0 -6 -8 -6q-4 0 -7.5 2t-2.5 6
l16 90q-92 9 -134 65.5t-42 133.5q0 24 5 52q10 62 47 114t92 85t118 39l15 85q0 6 8 6q4 0 7.5 -2.5t2.5 -6.5l-14 -80h12q34 0 71 -8.5t60 -21.5q7 -4 8.5 -6.5zM89 191q0 -71 31 -123.5t92 -64.5l82 464q-47 -3 -89 -32.5t-71.5 -78t-39.5 -108.5q-5 -32 -5 -57z" />
    <glyph glyph-name="sterling" unicode="&#xa3;" horiz-adv-x="388" 
d="M361 454q3 -4 3 -11l-12 -100q0 -4 -7 -4t-6 5q1 7 1 20q0 42 -18.5 72.5t-58.5 30.5q-49 0 -76.5 -31t-35.5 -76q-4 -24 -4 -50q0 -24 4 -70h106q6 0 6 -10t-6 -10h-104q2 -43 -4 -76q-7 -37 -23.5 -61t-42.5 -43h118q39 0 60 6.5t33.5 23.5t25.5 53q2 2 5 2
q2 0 4.5 -1.5t1.5 -4.5q-21 -71 -27 -107q-1 -7 -4 -9.5t-11 -2.5h-287q-5 0 -5 6q0 5 5 7q43 11 62 27q27 22 35 70q6 36 6 63q0 12 -1.5 26t-1.5 21h-46q-6 0 -6 10t6 10h43q-1 7 -2 21t-1 25q0 19 5 51q12 70 61 106.5t111 36.5q42 0 78 -18q7 -4 10 -8z" />
    <glyph glyph-name="currency" unicode="&#xa4;" horiz-adv-x="373" 
d="M299 293q20 -28 20 -66q0 -35 -13.5 -65t-37.5 -52l35 -48l-28 -25l-33 54q-41 -26 -85 -26q-40 0 -65 22l-49 -50l-15 21l48 46q-20 29 -20 73q0 37 14.5 67t38.5 51l-35 49l28 23l34 -54q38 22 78 22q42 0 69 -25l55 54l14 -20zM270 217q0 44 -19.5 73t-56.5 29
q-33 0 -56.5 -25t-32.5 -74q-3 -18 -3 -38q0 -43 18 -72t54 -29q34 0 59 27t34 76q3 17 3 33z" />
    <glyph glyph-name="yen" unicode="&#xa5;" horiz-adv-x="429" 
d="M475 462q0 -6 -4 -6q-60 0 -127 -91l-102 -138l-2 -14h96q6 0 6 -10t-6 -10h-244q-6 0 -6 10t6 10h102l1 7l-69 166q-16 39 -32.5 54.5t-45.5 15.5q-4 0 -4 6t4 6q10 0 30 -2l25 -1q27 0 67 2l41 1q3 0 3 -6t-3 -6q-44 0 -44 -24q0 -9 4 -17l71 -169l85 122q26 36 26 61
q0 13 -7.5 20t-21.5 7q-4 0 -4 6t4 6l37 -1q28 -2 51 -2q14 0 32 2l27 1q4 0 4 -6zM331 143q0 -10 -6 -10h-99l-10 -53q-4 -26 -4 -32q0 -22 14.5 -29t56.5 -7q4 0 4 -6t-4 -6q-28 0 -43 1l-60 1l-59 -1q-17 -1 -44 -1q-3 0 -3 6t3 6q35 0 53 5.5t27 20t14 44.5l8 51h-96
q-6 0 -6 10t6 10h242q6 0 6 -10z" />
    <glyph glyph-name="brokenbar" unicode="&#xa6;" horiz-adv-x="152" 
d="M110 351q-7 0 -14 2.5t-6 6.5l64 371q1 5 14 5q8 0 14.5 -2.5t5.5 -6.5l-65 -370q0 -6 -13 -6zM19 -163q-8 0 -14.5 2.5t-5.5 6.5l64 370q0 6 13 6q8 0 15 -2.5t6 -6.5l-65 -371q-1 -5 -13 -5z" />
    <glyph glyph-name="section" unicode="&#xa7;" horiz-adv-x="386" 
d="M364 537l-10 -94q0 -2 -5 -2t-5 2q2 24 -11 48.5t-36.5 41t-53.5 16.5q-27 0 -47.5 -18t-27.5 -57q-2 -14 -2 -21q0 -34 18.5 -57.5t56.5 -52.5q31 -24 49 -42.5t31 -45.5t13 -63q0 -15 -3 -33q-5 -37 -23 -66t-57 -64q22 -29 22 -62q0 -15 -2 -23q-10 -65 -54.5 -98.5
t-98.5 -33.5q-45 0 -76 18q-8 7 -7 17l9 93q2 3 7 3t4 -3q-1 -23 12 -47.5t36.5 -41t52.5 -16.5q27 0 47.5 18t28.5 57q2 14 2 20q0 35 -18.5 58t-57.5 54q-31 25 -48.5 43t-30.5 45t-13 63q0 14 3 32q5 36 23 65t56 64q-23 30 -23 65q0 7 2 21q12 64 57 98t98 34
q47 0 75 -19q8 -6 7 -16zM292 159q0 48 -22.5 78.5t-66.5 65.5q-34 28 -48 44q-34 -35 -44 -91q-3 -18 -3 -33q0 -47 22.5 -77t66.5 -66q33 -26 48 -43q34 34 44 90q3 17 3 32z" />
    <glyph glyph-name="dieresis" unicode="&#xa8;" horiz-adv-x="275" 
d="M91.5 491q-10.5 10 -10.5 28t10.5 28t28.5 10q19 0 29 -10t10 -28t-10 -28t-29 -10q-18 0 -28.5 10zM239.5 491q-10.5 10 -10.5 28t10.5 28t29.5 10t29 -10t10 -28t-10 -28t-29 -10t-29.5 10z" />
    <glyph glyph-name="copyright" unicode="&#xa9;" horiz-adv-x="724" 
d="M234 -68q-67 33 -111.5 99t-44.5 160q0 88 44 158t117.5 109t156.5 39q74 0 130.5 -30.5t86.5 -82.5t30 -114t-32 -115t-87 -84.5t-122 -31.5q-60 0 -99.5 22.5t-58.5 58t-19 75.5q0 51 25 89.5t64.5 59t80.5 20.5q35 0 63 -13.5t30 -33.5q0 -10 -8 -18t-18 -8
q-17 0 -34 24q-12 17 -24 25.5t-34 8.5q-89 0 -89 -130q0 -69 35 -111.5t114 -42.5q76 0 129 44.5t53 132.5q0 63 -32.5 116.5t-89 84.5t-124.5 31q-78 0 -134.5 -34.5t-85.5 -94t-29 -132.5q0 -92 44 -156.5t108 -96t124 -31.5q61 0 104 8.5t97 36.5q2 1 4 -2t1 -5
q-53 -40 -107.5 -54t-123.5 -14q-67 0 -134 33z" />
    <glyph glyph-name="ordfeminine" unicode="&#xaa;" horiz-adv-x="276" 
d="M308 423q3 0 6.5 -3t1.5 -5q-23 -26 -40.5 -38.5t-33.5 -12.5q-11 0 -16 6t-5 20q0 11 5 38l12 69q-31 -61 -70 -98.5t-74 -37.5q-40 0 -40 47q0 49 27.5 102t68.5 88t77 35q28 0 42 -18q9 11 12 24q1 2 6 1t5 -3l-38 -209q-2 -14 -2 -19q0 -21 12 -21q8 0 17.5 8
t24.5 26zM161.5 414.5q28.5 25.5 53 65t33.5 77.5q1 5 1 13q0 18 -10 30t-30 12q-26 0 -55.5 -26t-49 -68.5t-19.5 -88.5q0 -40 27 -40q21 0 49.5 25.5zM272.5 309q1.5 -4 1.5 -8q0 -13 -5 -13h-225q-4 0 -4 14q0 11 3 11h226q2 0 3.5 -4z" />
    <glyph glyph-name="guillemotleft" unicode="&#xab;" horiz-adv-x="421" 
d="M241 364q3 0 6 -3t1 -5l-145 -155l91 -154v-1q0 -3 -3.5 -6t-4.5 0l-131 149q-3 5 -3 10q0 7 6 13l182 152h1zM389 364q3 0 6 -3t0 -5l-145 -155l92 -154v-1q0 -3 -3.5 -6t-5.5 0l-131 149q-3 3 -3 9q0 8 7 14l181 152h2z" />
    <glyph glyph-name="logicalnot" unicode="&#xac;" horiz-adv-x="395" 
d="M364 77q0 -2 -6.5 -3.5t-13.5 -1.5t-12.5 1.5t-5.5 2.5v153h-292q-2 0 -3.5 6.5t-1.5 13.5t1.5 12.5t2.5 5.5h331v-190z" />
    <glyph glyph-name="uni00AD" unicode="&#xad;" horiz-adv-x="305" 
d="M28.5 175q-1.5 8 -1.5 17q0 18 3 19l250 46q4 1 4 -20t-4 -22l-248 -47q-2 -1 -3.5 7z" />
    <glyph glyph-name="registered" unicode="&#xae;" horiz-adv-x="765" 
d="M587 687.5q64 -37.5 98.5 -100t34.5 -136.5q0 -86 -42 -158t-112.5 -113.5t-152.5 -41.5q-72 0 -139.5 34.5t-110.5 100.5t-43 157q0 83 44.5 150.5t118 106t156.5 38.5q84 0 148 -37.5zM569 198q57 31 88.5 89t31.5 136q0 77 -37 141t-101 101t-143 37q-78 0 -134 -34
t-85.5 -91t-29.5 -124q0 -90 42 -155t106.5 -98t129.5 -33q75 0 132 31zM585 281q-1 -4 -3 -4h-73q-10 0 -28 40.5t-47 122.5q-25 -6 -60 -4l-18 -103l-2 -20q0 -15 10 -19.5t38 -4.5q1 0 1 -3t-1 -5.5t-2 -3.5l-73 1l-71 -1q-1 0 -1 2q0 3 1 6t2 4q25 0 36.5 3t16.5 11.5
t9 29.5l39 216q2 14 2 18q0 16 -10.5 21t-39.5 5q-1 0 -1 2q0 3 1 6t2 4l72 -1q13 0 43 2l40 1q78 0 78 -51q0 -9 -1 -14q-5 -29 -23 -52t-47 -37q26 -76 38 -106t28.5 -46t42.5 -16q2 0 1 -4zM418 451q36 0 57 15.5t28 51.5q2 16 2 22q0 54 -56 54q-20 0 -30 -2.5
t-16 -12.5t-10 -33l-16 -91q30 -4 41 -4z" />
    <glyph glyph-name="macron" unicode="&#xaf;" horiz-adv-x="333" 
d="M95.5 484q-1.5 4 -1.5 9q0 13 5 13h240q5 0 5 -13t-5 -13h-240q-2 0 -3.5 4z" />
    <glyph glyph-name="degree" unicode="&#xb0;" horiz-adv-x="299" 
d="M97.5 406.5q-29.5 33.5 -29.5 79.5q0 16 3 29q10 47 53.5 81t101.5 34q56 0 84.5 -32.5t28.5 -78.5q0 -15 -3 -30q-12 -51 -54.5 -83.5t-97.5 -32.5q-57 0 -86.5 33.5zM257.5 409.5q19.5 24.5 29.5 72.5q6 33 6 58q0 40 -17.5 59.5t-54.5 19.5q-46 0 -68 -26.5t-33 -74.5
q-6 -27 -6 -52q0 -81 79 -81q45 0 64.5 24.5z" />
    <glyph glyph-name="plusminus" unicode="&#xb1;" horiz-adv-x="398" 
d="M30.5 240.5q-1.5 6.5 -1.5 13.5q0 6 1 11.5t3 5.5h147v147q0 4 19 4t19 -4v-147h146q2 0 3.5 -5.5t1.5 -12.5t-1.5 -13t-3.5 -6h-146v-146q0 -2 -6.5 -3.5t-13.5 -1.5t-12.5 1.5t-5.5 2.5v147h-146q-2 0 -3.5 6.5zM367.5 29.5q1.5 -5.5 1.5 -11.5t-1.5 -11.5t-3.5 -5.5
h-330q-2 0 -3.5 5.5t-1.5 12.5q0 6 1.5 11t2.5 5h331q2 0 3.5 -5.5z" />
    <glyph glyph-name="uni00B2" unicode="&#xb2;" horiz-adv-x="227" 
d="M131 490q43 54 68.5 92t31.5 72q1 4 1 12q0 20 -10 31.5t-28 11.5q-22 0 -41.5 -17t-30.5 -44q0 -2 -4 -2q-3 0 -6 1.5t-2 4.5q35 77 99 77q30 0 45 -16t15 -42q0 -10 -1 -16q-5 -27 -29.5 -59t-68.5 -82q-51 -55 -65 -79q0 -1 2 -1q62 0 82 3t27 11.5t24 44.5q2 3 5 3
t5.5 -1.5t1.5 -4.5l-16 -84q0 -3 -3 -3h-157q-2 0 -3 2t1 6q12 25 57 79z" />
    <glyph glyph-name="uni00B3" unicode="&#xb3;" horiz-adv-x="227" 
d="M238 604.5q-20 -22.5 -49 -32.5q59 -15 59 -65q0 -25 -13.5 -51t-38 -42.5t-56.5 -16.5q-34 0 -50 19t-20 52q-1 4 5 4.5t7 -3.5q8 -56 56 -56q26 0 44.5 17.5t24.5 54.5q2 14 2 20q0 31 -16 45.5t-39 14.5q-2 0 -2 6t2 6q20 0 37 15t26.5 36t9.5 37q0 19 -11 31.5
t-29 12.5q-20 0 -39 -16.5t-30 -40.5q-1 -2 -3 -2q-3 0 -5.5 1.5t-1.5 3.5q14 33 38 53.5t58 20.5q29 0 44.5 -16.5t15.5 -43.5q0 -10 -1 -15q-5 -27 -25 -49.5z" />
    <glyph glyph-name="acute" unicode="&#xb4;" horiz-adv-x="212" 
d="M112.5 472q-5.5 2 -3.5 4l98 240q2 4 16.5 8.5t27 6t10.5 -3.5l-142 -254q-1 -3 -6.5 -1z" />
    <glyph glyph-name="paragraph" unicode="&#xb6;" horiz-adv-x="594" 
d="M218 -181q-15 12 -12 28q2 14 12 22t21 8q12 0 17 -5t10 -17t11.5 -18.5t21.5 -6.5q21 0 34 14t23.5 51t23.5 113l21 117q-36 -3 -79 -3q-103 0 -174.5 48.5t-71.5 153.5q0 29 6 62q23 119 103 180.5t201 61.5q28 0 59 -3q66 -3 74 -3q19 0 53 2l47 1q5 0 5 -6t-5 -6
q-39 0 -64.5 -21t-32.5 -60l-83 -477q-23 -129 -66 -188.5t-111 -59.5q-29 0 -44 12z" />
    <glyph glyph-name="periodcentered" unicode="&#xb7;" horiz-adv-x="198" 
d="M69.5 171.5q-10.5 10.5 -10.5 28.5q0 17 10.5 27t28.5 10q19 0 29 -10t10 -27q0 -18 -10 -28.5t-29 -10.5q-18 0 -28.5 10.5z" />
    <glyph glyph-name="cedilla" unicode="&#xb8;" horiz-adv-x="196" 
d="M-34.5 -266q-14.5 9 -14.5 27q0 6 1 9q1 8 8 13t17 5t15 -5.5t13 -17.5q6 -11 10.5 -16t12.5 -5q30 0 39 41q4 31 -34 77q-18 21 -18 46q0 17 8 32l30 60h11q-16 -37 -16 -56q0 -23 20 -48q16 -21 24 -38t8 -34q0 -8 -1 -12q-4 -31 -31 -59t-68 -28q-20 0 -34.5 9z" />
    <glyph glyph-name="uni00B9" unicode="&#xb9;" horiz-adv-x="236" 
d="M79 408.5q0 5.5 4 5.5q30 0 43 4t19.5 17.5t12.5 47.5l21 118q1 6 2 12.5t3 12.5q6 40 6 44q0 14 -10 14q-9 0 -58 -22h-2q-4 0 -5.5 4.5t2.5 6.5l109 55h2q3 0 4.5 -2.5t0.5 -4.5l-41 -238q-1 -7 -3.5 -20.5t-2.5 -20.5q0 -18 11 -23t42 -5q3 0 3 -5.5t-3 -5.5
q-20 0 -32 1l-43 1l-47 -1q-13 -1 -34 -1q-4 0 -4 5.5z" />
    <glyph glyph-name="ordmasculine" unicode="&#xba;" horiz-adv-x="269" 
d="M88.5 389.5q-23.5 30.5 -23.5 76.5q0 16 3 32q7 42 30 72t53 45t58 15q42 0 64.5 -31t22.5 -78q0 -8 -2 -26q-7 -37 -29 -68.5t-52.5 -49.5t-61.5 -18q-39 0 -62.5 30.5zM225 402.5q24 25.5 33 74.5q3 20 3 36q0 45 -19.5 72.5t-53.5 27.5q-32 0 -55 -24.5t-30 -71.5
q-4 -28 -4 -39q0 -45 19 -73t52 -28q31 0 55 25.5zM45.5 292q-1.5 4 -1.5 9q0 4 1.5 8t2.5 4h221q2 0 3.5 -4t1.5 -8q0 -13 -5 -13h-220q-2 0 -3.5 4z" />
    <glyph glyph-name="guillemotright" unicode="&#xbb;" horiz-adv-x="421" 
d="M35 37q-3 0 -6 3t-1 6l145 154l-91 154v1q0 3 3.5 6t4.5 0l131 -149q3 -4 3 -10q0 -7 -6 -13l-182 -152h-1zM182 37q-3 0 -6 3t-1 6l145 154l-91 154v1q0 3 3.5 6t4.5 0l131 -149q3 -4 3 -10q0 -7 -6 -13l-181 -152h-2z" />
    <glyph glyph-name="onequarter" unicode="&#xbc;" horiz-adv-x="546" 
d="M189 310l-43 1l-47 -1q-13 -1 -34 -1q-4 0 -4 5.5t4 5.5q30 0 43 4t19.5 17.5t12.5 47.5l21 118q1 6 2 12.5t3 12.5q6 40 6 44q0 14 -10 14q-9 0 -58 -22h-2q-4 0 -5.5 4.5t2.5 6.5l109 55h2q3 0 4.5 -2.5t0.5 -4.5l-41 -238q-1 -7 -3.5 -20.5t-2.5 -20.5q0 -18 11 -23
t42 -5q3 0 3 -5.5t-3 -5.5q-20 0 -32 1zM468 626q6 0 13 -4t6 -8l-338 -616q0 -1 -2 -1q-5 0 -13 4t-7 6l338 618q1 1 3 1zM508 110q0 -7 -2 -15t-4 -8l-40 3l-9 -49l-2 -16q0 -9 7.5 -12t29.5 -3q5 0 5 -6t-5 -6q-14 0 -22 1l-31 1l-40 -1q-10 -1 -29 -1q-4 0 -4 6t4 6
q33 0 43 5.5t14 25.5l9 50q-62 2 -114 2q-1 0 -2 2.5t1 3.5l178 225q2 2 5 0.5t2 -4.5l-37 -208l42 2q1 0 1 -4zM435 110l26 153l-107 -151q-4 -4 2 -4q35 0 79 2z" />
    <glyph glyph-name="onehalf" unicode="&#xbd;" horiz-adv-x="560" 
d="M61 314.5q0 5.5 4 5.5q30 0 43 4t19.5 17.5t12.5 47.5l21 118q1 6 2 12.5t3 12.5q6 40 6 44q0 14 -10 14q-9 0 -58 -22h-2q-4 0 -5.5 4.5t2.5 6.5l109 55h2q3 0 4.5 -2.5t0.5 -4.5l-41 -238q-1 -7 -3.5 -20.5t-2.5 -20.5q0 -18 11 -23t42 -5q3 0 3 -5.5t-3 -5.5
q-20 0 -32 1l-43 1l-47 -1q-13 -1 -34 -1q-4 0 -4 5.5zM147 -3q-5 0 -13 4t-7 6l338 618q1 1 3 1q6 0 13 -4t6 -8l-338 -616q0 -1 -2 -1zM394 87q43 54 68.5 92t31.5 72q1 4 1 12q0 20 -10 31.5t-28 11.5q-22 0 -41.5 -17t-30.5 -44q0 -2 -4 -2q-3 0 -6 1.5t-2 4.5
q35 77 99 77q30 0 45 -16t15 -42q0 -10 -1 -16q-5 -27 -29.5 -59t-68.5 -82q-51 -55 -65 -79q0 -1 2 -1q62 0 82 3t27 11.5t24 44.5q2 3 5 3t5.5 -1.5t1.5 -4.5l-16 -84q0 -3 -3 -3h-157q-2 0 -3 2t1 6q12 25 57 79z" />
    <glyph glyph-name="threequarters" unicode="&#xbe;" horiz-adv-x="537" 
d="M216.5 362q-13.5 -26 -38 -42.5t-56.5 -16.5q-34 0 -50 19t-20 52q-1 4 5 4.5t7 -3.5q8 -56 56 -56q26 0 44.5 17.5t24.5 54.5q2 14 2 20q0 31 -16 45.5t-39 14.5q-2 0 -2 6t2 6q20 0 37 15t26.5 36t9.5 37q0 19 -11 31.5t-29 12.5q-20 0 -39 -16.5t-30 -40.5
q-1 -2 -3 -2q-3 0 -5.5 1.5t-1.5 3.5q14 33 38 53.5t58 20.5q29 0 44.5 -16.5t15.5 -43.5q0 -10 -1 -15q-5 -27 -25 -49.5t-49 -32.5q59 -15 59 -65q0 -25 -13.5 -51zM459 626q6 0 13 -4t6 -8l-338 -616q0 -1 -2 -1q-5 0 -13 4t-7 6l338 618q1 1 3 1zM499 110q0 -7 -2 -15
t-4 -8l-40 3l-9 -49l-2 -16q0 -9 7.5 -12t29.5 -3q5 0 5 -6t-5 -6q-14 0 -22 1l-31 1l-40 -1q-10 -1 -29 -1q-4 0 -4 6t4 6q33 0 43 5.5t14 25.5l9 50q-62 2 -114 2q-1 0 -2 2.5t1 3.5l178 225q2 2 5 0.5t2 -4.5l-37 -208l42 2q1 0 1 -4zM426 110l26 153l-107 -151
q-4 -4 2 -4q35 0 79 2z" />
    <glyph glyph-name="questiondown" unicode="&#xbf;" horiz-adv-x="298" 
d="M235.5 350.5q10.5 -10.5 10.5 -28.5q0 -17 -10.5 -27t-28.5 -10q-19 0 -29 10t-10 27q0 18 10 28.5t29 10.5q18 0 28.5 -10.5zM185 94q0 -28 -4 -54q-5 -31 -21 -51t-48 -46t-51 -49.5t-26 -60.5q-3 -14 -3 -26q0 -33 18 -51.5t51 -18.5q29 0 41.5 13t20.5 35
q6 17 14 27.5t22 10.5q13 0 19 -9t4 -22q-4 -27 -42.5 -47t-85.5 -20q-50 0 -80.5 24.5t-30.5 68.5q0 13 3 27q8 40 30 66.5t43 44l27 22.5q39 34 56 61t23 63q4 16 4 57q0 4 5 4t5 -4q6 -28 6 -65z" />
    <glyph glyph-name="Agrave" unicode="&#xc0;" horiz-adv-x="599" 
d="M269.5 764.5q12.5 7.5 29 13.5t20.5 4q40 -23 84.5 -48t87.5 -45q2 -1 2 -4t-2 -5t-4 -1q-113 50 -223 77q-7 1 5.5 8.5zM565 6q0 -6 -4 -6q-15 0 -45 2q-34 2 -54 2q-19 0 -51 -2q-30 -2 -44 -2q-3 0 -3 6t3 6q40 0 54.5 9.5t14.5 35.5q0 7 -2 27l-30 203h-191l-84 -154
q-33 -59 -33 -87q0 -20 15.5 -27t46.5 -7q4 0 3.5 -6t-4.5 -6q-11 0 -43 2q-36 2 -56 2q-21 0 -49 -2t-43 -2q-4 0 -4 6t4 6q66 0 128 108l288 515q2 3 7 3q9 0 11 -5l83 -549q4 -30 10.5 -44.5t21.5 -21t46 -6.5q4 0 4 -6zM223 305h178l-38 254z" />
    <glyph glyph-name="Aacute" unicode="&#xc1;" horiz-adv-x="599" 
d="M290 678q-4 0 -5.5 4.5t1.5 6.5q40 18 114 60l58 32q4 2 20.5 -3.5t29 -13t5.5 -8.5q-118 -30 -222 -78h-1zM565 6q0 -6 -4 -6q-15 0 -45 2q-34 2 -54 2q-19 0 -51 -2q-30 -2 -44 -2q-3 0 -3 6t3 6q40 0 54.5 9.5t14.5 35.5q0 7 -2 27l-30 203h-191l-84 -154
q-33 -59 -33 -87q0 -20 15.5 -27t46.5 -7q4 0 3.5 -6t-4.5 -6q-11 0 -43 2q-36 2 -56 2q-21 0 -49 -2t-43 -2q-4 0 -4 6t4 6q66 0 128 108l288 515q2 3 7 3q9 0 11 -5l83 -549q4 -30 10.5 -44.5t21.5 -21t46 -6.5q4 0 4 -6zM223 305h178l-38 254z" />
    <glyph glyph-name="Acircumflex" unicode="&#xc2;" horiz-adv-x="599" 
d="M305 660q-3 0 -5 2.5t0 4.5l105 92q5 5 9 5q6 0 9 -5l72 -92v-1q0 -3 -2.5 -5.5t-4.5 -0.5l-83 62l-99 -62h-1zM565 6q0 -6 -4 -6q-15 0 -45 2q-34 2 -54 2q-19 0 -51 -2q-30 -2 -44 -2q-3 0 -3 6t3 6q40 0 54.5 9.5t14.5 35.5q0 7 -2 27l-30 203h-191l-84 -154
q-33 -59 -33 -87q0 -20 15.5 -27t46.5 -7q4 0 3.5 -6t-4.5 -6q-11 0 -43 2q-36 2 -56 2q-21 0 -49 -2t-43 -2q-4 0 -4 6t4 6q66 0 128 108l288 515q2 3 7 3q9 0 11 -5l83 -549q4 -30 10.5 -44.5t21.5 -21t46 -6.5q4 0 4 -6zM223 305h178l-38 254z" />
    <glyph glyph-name="Atilde" unicode="&#xc3;" horiz-adv-x="599" 
d="M282 721q-3 0 -5 2.5t0 4.5q16 22 38.5 39.5t45.5 17.5q14 0 31.5 -4.5t20.5 -5.5q44 -14 74 -14q17 0 27.5 7t21.5 20h1q3 0 5.5 -2.5t0.5 -4.5q-26 -34 -43 -46t-35 -12q-15 0 -31 3.5t-32 8.5t-34 9t-35 4q-16 0 -24.5 -5.5t-15 -12l-9.5 -9.5h-2zM565 6q0 -6 -4 -6
q-15 0 -45 2q-34 2 -54 2q-19 0 -51 -2q-30 -2 -44 -2q-3 0 -3 6t3 6q40 0 54.5 9.5t14.5 35.5q0 7 -2 27l-30 203h-191l-84 -154q-33 -59 -33 -87q0 -20 15.5 -27t46.5 -7q4 0 3.5 -6t-4.5 -6q-11 0 -43 2q-36 2 -56 2q-21 0 -49 -2t-43 -2q-4 0 -4 6t4 6q66 0 128 108
l288 515q2 3 7 3q9 0 11 -5l83 -549q4 -30 10.5 -44.5t21.5 -21t46 -6.5q4 0 4 -6zM223 305h178l-38 254z" />
    <glyph glyph-name="Adieresis" unicode="&#xc4;" horiz-adv-x="599" 
d="M296 730q-11 10 -11 28t11 28t29 10q19 0 29 -10t10 -28t-10 -28t-29 -10q-18 0 -29 10zM471.5 730q-10.5 10 -10.5 28t10.5 28t29.5 10q18 0 28 -10t10 -28t-10 -28t-28 -10q-19 0 -29.5 10zM565 6q0 -6 -4 -6q-15 0 -45 2q-34 2 -54 2q-19 0 -51 -2q-30 -2 -44 -2
q-3 0 -3 6t3 6q40 0 54.5 9.5t14.5 35.5q0 7 -2 27l-30 203h-191l-84 -154q-33 -59 -33 -87q0 -20 15.5 -27t46.5 -7q4 0 3.5 -6t-4.5 -6q-11 0 -43 2q-36 2 -56 2q-21 0 -49 -2t-43 -2q-4 0 -4 6t4 6q66 0 128 108l288 515q2 3 7 3q9 0 11 -5l83 -549q4 -30 10.5 -44.5
t21.5 -21t46 -6.5q4 0 4 -6zM223 305h178l-38 254z" />
    <glyph glyph-name="Aring" unicode="&#xc5;" horiz-adv-x="599" 
d="M344 697.5q-19 23.5 -19 56.5q0 36 25 56.5t55 20.5t51 -23t21 -57q0 -35 -24.5 -56t-56.5 -21q-33 0 -52 23.5zM359 774q0 -34 15 -62.5t37 -28.5q31 0 31 51q0 35 -17 61t-39 26q-27 0 -27 -47zM565 6q0 -6 -4 -6q-15 0 -45 2q-34 2 -54 2q-19 0 -51 -2q-30 -2 -44 -2
q-3 0 -3 6t3 6q40 0 54.5 9.5t14.5 35.5q0 7 -2 27l-30 203h-191l-84 -154q-33 -59 -33 -87q0 -20 15.5 -27t46.5 -7q4 0 3.5 -6t-4.5 -6q-11 0 -43 2q-36 2 -56 2q-21 0 -49 -2t-43 -2q-4 0 -4 6t4 6q66 0 128 108l288 515q2 3 7 3q9 0 11 -5l83 -549q4 -30 10.5 -44.5
t21.5 -21t46 -6.5q4 0 4 -6zM223 305h178l-38 254z" />
    <glyph glyph-name="AE" unicode="&#xc6;" horiz-adv-x="768" 
d="M764.5 623q1.5 -2 0.5 -7l-9 -59q-3 -15 -5 -31.5t-5 -31.5q-1 -3 -6.5 -2.5t-4.5 3.5q2 10 2 29q0 41 -20 64t-59 23h-43q-46 0 -68 -5t-31 -19t-13 -44l-26 -208h121q40 0 59 16.5t26 54.5q0 3 4 3q3 0 5.5 -1.5t1.5 -3.5l-8 -45l-6 -34l-15 -90q0 -1 -4 -1q-7 0 -7 3
q3 17 3 30q0 27 -15 38t-51 11h-116l-29 -231q-2 -22 -2 -29q0 -23 13.5 -30.5t53.5 -7.5h84q36 0 68 35.5t49 93.5q1 3 6.5 2t4.5 -4q-22 -77 -31 -130q-2 -9 -5 -12t-11 -3h-373q-4 0 -4 6t4 6q36 0 54 5.5t26.5 19.5t12.5 44l30 235h-154l-147 -193q-42 -56 -42 -81
q0 -30 62 -30q4 0 4 -6t-4 -6q-16 0 -46 2q-34 2 -59 2q-23 0 -53 -2q-26 -2 -43 -2q-5 0 -5 6t5 6q39 0 72.5 24.5t87.5 95.5l335 442q15 22 15 28q0 7 -14 9t-53 2q-4 0 -4 6t4 6h371q5 0 6.5 -2zM287 335h142l29 225z" />
    <glyph glyph-name="Ccedilla" unicode="&#xc7;" horiz-adv-x="585" 
d="M584.5 590q1.5 -4 0.5 -15l-8 -105q-1 -4 -6 -4t-5 4q-5 77 -49 111t-121 34q-66 0 -122 -33.5t-93.5 -94.5t-51.5 -141q-7 -41 -7 -83q0 -73 23.5 -132t66 -94t99.5 -38v1h11v-1v0q60 0 114.5 38t93.5 112q2 2 3 2q3 0 5.5 -2t1.5 -4l-30 -106q-4 -13 -6.5 -17t-11.5 -7
q-88 -28 -176 -28q-10 -24 -10 -43q0 -23 20 -48q16 -21 24 -38t8 -34q0 -8 -1 -12q-4 -31 -31 -59t-68 -28q-20 0 -34.5 9t-14.5 27q0 6 1 9q1 8 8 13t17 5t15 -5.5t13 -17.5q6 -11 10.5 -16t12.5 -5q30 0 39 41q4 31 -34 77q-18 21 -18 46q0 17 8 32l24 47q-126 3 -185 76
t-59 180q0 41 7 76q16 91 72 163.5t134.5 113t158.5 40.5q42 0 81.5 -10t62.5 -27q6 -5 7.5 -9z" />
    <glyph glyph-name="Egrave" unicode="&#xc8;" horiz-adv-x="510" 
d="M245 764.5q15 7.5 34.5 13.5t23.5 4q16 -12 24 -19q65 -50 102 -74q2 -2 2 -3q0 -3 -2.5 -5.5t-5.5 -1.5q-90 49 -186 77q-7 1 8 8.5zM509 616l-9 -59q-3 -15 -5 -31.5t-5 -31.5q-1 -4 -7 -3t-5 4q3 18 3 34q0 38 -17 60t-48 22h-99q-33 0 -48.5 -5t-23.5 -19t-13 -44
l-37 -208h148q38 0 55 15t23 54q0 3 6 3q2 0 4.5 -1.5t1.5 -3.5q-5 -30 -8 -42l-6 -35l-6 -39l-8 -52q-1 -4 -7 -3.5t-5 4.5q4 26 4 33q0 26 -14 37t-47 11h-144l-41 -231q-3 -18 -3 -30q0 -22 13.5 -29.5t51.5 -7.5h131q33 0 63 36t47 93q1 3 6.5 2t4.5 -4
q-17 -54 -30 -130q-2 -8 -5.5 -11.5t-10.5 -3.5h-404q-2 0 -2 6t2 6q34 0 50 5t24 19t14 45l82 463q3 18 3 31q0 23 -14 30.5t-52 7.5q-3 0 -3 6t3 6h381q8 0 6 -9z" />
    <glyph glyph-name="Eacute" unicode="&#xc9;" horiz-adv-x="510" 
d="M279 678q-4 0 -5 4.5t2 6.5q46 21 122 65l50 28q4 2 20.5 -4t29 -13.5t5.5 -8.5q-62 -15 -113.5 -33.5t-108.5 -43.5zM509 616l-9 -59q-3 -15 -5 -31.5t-5 -31.5q-1 -4 -7 -3t-5 4q3 18 3 34q0 38 -17 60t-48 22h-99q-33 0 -48.5 -5t-23.5 -19t-13 -44l-37 -208h148
q38 0 55 15t23 54q0 3 6 3q2 0 4.5 -1.5t1.5 -3.5q-5 -30 -8 -42l-6 -35l-6 -39l-8 -52q-1 -4 -7 -3.5t-5 4.5q4 26 4 33q0 26 -14 37t-47 11h-144l-41 -231q-3 -18 -3 -30q0 -22 13.5 -29.5t51.5 -7.5h131q33 0 63 36t47 93q1 3 6.5 2t4.5 -4q-17 -54 -30 -130
q-2 -8 -5.5 -11.5t-10.5 -3.5h-404q-2 0 -2 6t2 6q34 0 50 5t24 19t14 45l82 463q3 18 3 31q0 23 -14 30.5t-52 7.5q-3 0 -3 6t3 6h381q8 0 6 -9z" />
    <glyph glyph-name="Ecircumflex" unicode="&#xca;" horiz-adv-x="510" 
d="M248 660q-3 0 -5 2.5t0 4.5l105 92q5 5 9 5q6 0 9 -5l72 -92v-1q0 -3 -2.5 -5.5t-4.5 -0.5l-83 62l-99 -62h-1zM509 616l-9 -59q-3 -15 -5 -31.5t-5 -31.5q-1 -4 -7 -3t-5 4q3 18 3 34q0 38 -17 60t-48 22h-99q-33 0 -48.5 -5t-23.5 -19t-13 -44l-37 -208h148q38 0 55 15
t23 54q0 3 6 3q2 0 4.5 -1.5t1.5 -3.5q-5 -30 -8 -42l-6 -35l-6 -39l-8 -52q-1 -4 -7 -3.5t-5 4.5q4 26 4 33q0 26 -14 37t-47 11h-144l-41 -231q-3 -18 -3 -30q0 -22 13.5 -29.5t51.5 -7.5h131q33 0 63 36t47 93q1 3 6.5 2t4.5 -4q-17 -54 -30 -130q-2 -8 -5.5 -11.5
t-10.5 -3.5h-404q-2 0 -2 6t2 6q34 0 50 5t24 19t14 45l82 463q3 18 3 31q0 23 -14 30.5t-52 7.5q-3 0 -3 6t3 6h381q8 0 6 -9z" />
    <glyph glyph-name="Edieresis" unicode="&#xcb;" horiz-adv-x="510" 
d="M251.5 730q-10.5 10 -10.5 28t10.5 28t28.5 10q19 0 29 -10t10 -28t-10 -28t-29 -10q-18 0 -28.5 10zM399.5 730q-10.5 10 -10.5 28t10.5 28t29.5 10t29 -10t10 -28t-10 -28t-29 -10t-29.5 10zM509 616l-9 -59q-3 -15 -5 -31.5t-5 -31.5q-1 -4 -7 -3t-5 4q3 18 3 34
q0 38 -17 60t-48 22h-99q-33 0 -48.5 -5t-23.5 -19t-13 -44l-37 -208h148q38 0 55 15t23 54q0 3 6 3q2 0 4.5 -1.5t1.5 -3.5q-5 -30 -8 -42l-6 -35l-6 -39l-8 -52q-1 -4 -7 -3.5t-5 4.5q4 26 4 33q0 26 -14 37t-47 11h-144l-41 -231q-3 -18 -3 -30q0 -22 13.5 -29.5
t51.5 -7.5h131q33 0 63 36t47 93q1 3 6.5 2t4.5 -4q-17 -54 -30 -130q-2 -8 -5.5 -11.5t-10.5 -3.5h-404q-2 0 -2 6t2 6q34 0 50 5t24 19t14 45l82 463q3 18 3 31q0 23 -14 30.5t-52 7.5q-3 0 -3 6t3 6h381q8 0 6 -9z" />
    <glyph glyph-name="Igrave" unicode="&#xcc;" horiz-adv-x="301" 
d="M129 756q-7 1 8 8.5t34.5 13.5t23.5 4q16 -12 24 -19q65 -50 102 -74q2 -2 2 -3q0 -3 -2.5 -5.5t-5.5 -1.5q-90 49 -186 77zM16 6q0 6 3 6q33 0 49.5 5t24.5 19.5t13 44.5l82 463q4 24 4 31q0 23 -14.5 30.5t-53.5 7.5q-3 0 -3 6t3 6l41 -1q36 -2 57 -2q27 0 63 2l39 1
q2 0 2 -6t-2 -6q-33 0 -49.5 -6t-24.5 -20.5t-14 -44.5l-82 -461q-3 -19 -3 -31q0 -23 14 -30.5t54 -7.5q2 0 2 -6t-2 -6q-25 0 -40 1l-61 1l-57 -1q-15 -1 -42 -1q-3 0 -3 6z" />
    <glyph glyph-name="Iacute" unicode="&#xcd;" horiz-adv-x="301" 
d="M171 678q-4 0 -5 4.5t2 6.5q46 21 122 65l50 28q4 2 20.5 -4t29 -13.5t5.5 -8.5q-62 -15 -113.5 -33.5t-108.5 -43.5zM16 6q0 6 3 6q33 0 49.5 5t24.5 19.5t13 44.5l82 463q4 24 4 31q0 23 -14.5 30.5t-53.5 7.5q-3 0 -3 6t3 6l41 -1q36 -2 57 -2q27 0 63 2l39 1
q2 0 2 -6t-2 -6q-33 0 -49.5 -6t-24.5 -20.5t-14 -44.5l-82 -461q-3 -19 -3 -31q0 -23 14 -30.5t54 -7.5q2 0 2 -6t-2 -6q-25 0 -40 1l-61 1l-57 -1q-15 -1 -42 -1q-3 0 -3 6z" />
    <glyph glyph-name="Icircumflex" unicode="&#xce;" horiz-adv-x="301" 
d="M140 660q-3 0 -5 2.5t0 4.5l105 92q5 5 9 5q6 0 9 -5l72 -92v-1q0 -3 -2.5 -5.5t-4.5 -0.5l-83 62l-99 -62h-1zM16 6q0 6 3 6q33 0 49.5 5t24.5 19.5t13 44.5l82 463q4 24 4 31q0 23 -14.5 30.5t-53.5 7.5q-3 0 -3 6t3 6l41 -1q36 -2 57 -2q27 0 63 2l39 1q2 0 2 -6
t-2 -6q-33 0 -49.5 -6t-24.5 -20.5t-14 -44.5l-82 -461q-3 -19 -3 -31q0 -23 14 -30.5t54 -7.5q2 0 2 -6t-2 -6q-25 0 -40 1l-61 1l-57 -1q-15 -1 -42 -1q-3 0 -3 6z" />
    <glyph glyph-name="Idieresis" unicode="&#xcf;" horiz-adv-x="301" 
d="M153.5 730q-10.5 10 -10.5 28t10.5 28t29.5 10t29 -10t10 -28t-10 -28t-29 -10t-29.5 10zM281.5 730q-10.5 10 -10.5 28t10.5 28t28.5 10q19 0 29 -10t10 -28t-10 -28t-29 -10q-18 0 -28.5 10zM16 6q0 6 3 6q33 0 49.5 5t24.5 19.5t13 44.5l82 463q4 24 4 31
q0 23 -14.5 30.5t-53.5 7.5q-3 0 -3 6t3 6l41 -1q36 -2 57 -2q27 0 63 2l39 1q2 0 2 -6t-2 -6q-33 0 -49.5 -6t-24.5 -20.5t-14 -44.5l-82 -461q-3 -19 -3 -31q0 -23 14 -30.5t54 -7.5q2 0 2 -6t-2 -6q-25 0 -40 1l-61 1l-57 -1q-15 -1 -42 -1q-3 0 -3 6z" />
    <glyph glyph-name="Eth" unicode="&#xd0;" horiz-adv-x="606" 
d="M468.5 595.5q58.5 -31.5 89.5 -87t31 -126.5q0 -34 -5 -59q-17 -97 -70.5 -171.5t-128 -115t-153.5 -40.5q-25 0 -55 3q-12 1 -29 2t-38 1l-60 -1q-14 -1 -39 -1q-3 0 -3 6t3 6q33 0 49.5 5t25 19.5t13.5 44.5l39 221h-85q-4 0 -4 9t4 9h88l40 224q4 26 4 32
q0 22 -14.5 29.5t-52.5 7.5q-2 0 -2 6t2 6l41 -1q38 -2 60 -2q31 0 62 3q38 2 50 2q79 0 137.5 -31.5zM529 381q0 104 -50.5 168.5t-141.5 64.5q-38 0 -58.5 -5t-32.5 -20.5t-18 -46.5l-39 -222h126q4 0 4 -9t-4 -9h-129l-37 -210q-4 -24 -4 -31q0 -27 18 -39.5t63 -12.5
q71 0 132.5 34t104 100t59.5 158q7 39 7 80z" />
    <glyph glyph-name="Ntilde" unicode="&#xd1;" horiz-adv-x="650" 
d="M285 697q-3 0 -5.5 2.5t-0.5 4.5q16 22 38.5 40t45.5 18q17 0 52 -11q44 -14 74 -14q17 0 27.5 7t21.5 20h2q3 0 5 -2.5t0 -4.5q-26 -34 -43 -45.5t-35 -11.5q-15 0 -31 3.5t-32 8.5q-42 12 -69 12q-16 0 -24.5 -5.5t-15 -12l-9.5 -9.5h-1zM683 619q0 -6 -2 -6
q-36 0 -55.5 -21t-27.5 -72l-94 -531q-1 -3 -5.5 -3.5t-6.5 3.5l-285 554l-11 20l-79 -459q-4 -23 -4 -42q0 -27 12 -38.5t39 -11.5q2 0 2 -6t-2 -6q-20 0 -30 1l-44 1l-41 -1q-12 -1 -34 -1q-2 0 -2 6t2 6q36 0 55.5 21t27.5 71l84 478q-25 31 -58 31q-3 0 -3 6t3 6l32 -1
q10 -1 28 -1q14 0 23.5 1t14.5 1q6 0 9 -4t7 -15q1 -3 4.5 -13t8.5 -20l251 -493l77 440q4 23 4 42q0 28 -12 39.5t-39 11.5q-2 0 -2 6t2 6l30 -1q26 -2 44 -2q15 0 41 2l34 1q2 0 2 -6z" />
    <glyph glyph-name="Ograve" unicode="&#xd2;" horiz-adv-x="650" 
d="M305 756q-7 1 8 8.5t34.5 13.5t23.5 4q16 -12 24 -19q65 -50 102 -74q2 -2 2 -3q0 -3 -2.5 -5.5t-5.5 -1.5q-90 49 -186 77zM167 20.5q-50 32.5 -76 90t-26 129.5q0 36 6 73q16 93 66 166.5t121.5 115t150.5 41.5q71 0 121.5 -32.5t76.5 -89t26 -128.5q0 -29 -7 -73
q-17 -93 -68 -167.5t-123 -116t-150 -41.5q-68 0 -118 32.5zM481.5 77.5q64.5 63.5 89.5 182.5q11 53 11 99q0 74 -26 131.5t-74.5 89.5t-113.5 32q-93 0 -157 -66t-86 -180q-9 -48 -9 -92q0 -74 24.5 -133t72.5 -93t114 -34q90 0 154.5 63.5z" />
    <glyph glyph-name="Oacute" unicode="&#xd3;" horiz-adv-x="650" 
d="M347 678q-4 0 -5 4.5t2 6.5q46 21 122 65l50 28q4 2 20.5 -4t29 -13.5t5.5 -8.5q-62 -15 -113.5 -33.5t-108.5 -43.5zM167 20.5q-50 32.5 -76 90t-26 129.5q0 36 6 73q16 93 66 166.5t121.5 115t150.5 41.5q71 0 121.5 -32.5t76.5 -89t26 -128.5q0 -29 -7 -73
q-17 -93 -68 -167.5t-123 -116t-150 -41.5q-68 0 -118 32.5zM481.5 77.5q64.5 63.5 89.5 182.5q11 53 11 99q0 74 -26 131.5t-74.5 89.5t-113.5 32q-93 0 -157 -66t-86 -180q-9 -48 -9 -92q0 -74 24.5 -133t72.5 -93t114 -34q90 0 154.5 63.5z" />
    <glyph glyph-name="Ocircumflex" unicode="&#xd4;" horiz-adv-x="650" 
d="M316 660q-3 0 -5 2.5t0 4.5l105 92q5 5 9 5q6 0 9 -5l72 -92v-1q0 -3 -2.5 -5.5t-4.5 -0.5l-83 62l-99 -62h-1zM167 20.5q-50 32.5 -76 90t-26 129.5q0 36 6 73q16 93 66 166.5t121.5 115t150.5 41.5q71 0 121.5 -32.5t76.5 -89t26 -128.5q0 -29 -7 -73
q-17 -93 -68 -167.5t-123 -116t-150 -41.5q-68 0 -118 32.5zM481.5 77.5q64.5 63.5 89.5 182.5q11 53 11 99q0 74 -26 131.5t-74.5 89.5t-113.5 32q-93 0 -157 -66t-86 -180q-9 -48 -9 -92q0 -74 24.5 -133t72.5 -93t114 -34q90 0 154.5 63.5z" />
    <glyph glyph-name="Otilde" unicode="&#xd5;" horiz-adv-x="650" 
d="M295 697q-3 0 -5.5 2.5t-0.5 4.5q16 22 38.5 40t45.5 18q17 0 52 -11q44 -14 74 -14q17 0 27.5 7t21.5 20h2q3 0 5 -2.5t0 -4.5q-26 -34 -43 -45.5t-35 -11.5q-15 0 -31 3.5t-32 8.5q-42 12 -69 12q-16 0 -24.5 -5.5t-15 -12l-9.5 -9.5h-1zM167 20.5q-50 32.5 -76 90
t-26 129.5q0 36 6 73q16 93 66 166.5t121.5 115t150.5 41.5q71 0 121.5 -32.5t76.5 -89t26 -128.5q0 -29 -7 -73q-17 -93 -68 -167.5t-123 -116t-150 -41.5q-68 0 -118 32.5zM481.5 77.5q64.5 63.5 89.5 182.5q11 53 11 99q0 74 -26 131.5t-74.5 89.5t-113.5 32
q-93 0 -157 -66t-86 -180q-9 -48 -9 -92q0 -74 24.5 -133t72.5 -93t114 -34q90 0 154.5 63.5z" />
    <glyph glyph-name="Odieresis" unicode="&#xd6;" horiz-adv-x="650" 
d="M319.5 730q-10.5 10 -10.5 28t10.5 28t28.5 10q19 0 29 -10t10 -28t-10 -28t-29 -10q-18 0 -28.5 10zM467.5 730q-10.5 10 -10.5 28t10.5 28t29.5 10t29 -10t10 -28t-10 -28t-29 -10t-29.5 10zM167 20.5q-50 32.5 -76 90t-26 129.5q0 36 6 73q16 93 66 166.5t121.5 115
t150.5 41.5q71 0 121.5 -32.5t76.5 -89t26 -128.5q0 -29 -7 -73q-17 -93 -68 -167.5t-123 -116t-150 -41.5q-68 0 -118 32.5zM481.5 77.5q64.5 63.5 89.5 182.5q11 53 11 99q0 74 -26 131.5t-74.5 89.5t-113.5 32q-93 0 -157 -66t-86 -180q-9 -48 -9 -92q0 -74 24.5 -133
t72.5 -93t114 -34q90 0 154.5 63.5z" />
    <glyph glyph-name="multiply" unicode="&#xd7;" horiz-adv-x="398" 
d="M329 87q2 -4 -11 -17t-16 -10l-103 103l-104 -103q-3 -4 -16.5 9.5t-10.5 15.5l105 105l-104 104q-4 2 9.5 15.5t16.5 10.5l104 -104l103 103q3 3 16 -10t11 -17l-103 -102z" />
    <glyph glyph-name="Oslash" unicode="&#xd8;" horiz-adv-x="650" 
d="M650 630q4 0 9.5 -5t2.5 -7l-72 -73q43 -66 43 -159q0 -29 -7 -73q-17 -93 -68 -167.5t-123 -116t-150 -41.5q-53 0 -95.5 20t-70.5 57l-71 -72l-2 -1q-4 0 -9 6t-2 9l72 73q-43 68 -43 160q0 29 7 73q16 93 66 166.5t121.5 115t150.5 41.5q109 0 170 -77l69 70q0 1 2 1z
M116 274q0 -88 33 -151l391 397q-27 44 -71 68t-101 24q-93 0 -157 -66t-86 -180q-9 -48 -9 -92zM582 358q0 85 -32 146l-391 -398q27 -44 69.5 -68t98.5 -24q90 0 154.5 63.5t89.5 182.5q11 53 11 98z" />
    <glyph glyph-name="Ugrave" unicode="&#xd9;" horiz-adv-x="618" 
d="M278 756q-7 1 5.5 8.5t29 13.5t20.5 4q40 -23 84.5 -48t87.5 -45q2 -1 2 -4t-2 -5t-4 -1q-113 50 -223 77zM567 552q0 31 -15.5 46t-47.5 15q-4 0 -4 6t4 6l39 -1q30 -2 48 -2q17 0 45 2l35 1q4 0 4 -6t-4 -6q-37 0 -58.5 -23t-30.5 -71l-50 -286q-21 -117 -90 -181.5
t-167 -64.5q-85 0 -132 47.5t-47 131.5q0 29 6 60l56 319q3 18 3 30q0 23 -14.5 30.5t-55.5 7.5q-3 0 -3 6t3 6l45 -1q36 -2 58 -2q27 0 65 2l39 1q4 0 4 -6t-4 -6q-35 0 -53 -6t-26.5 -21t-13.5 -46l-51 -282q-7 -38 -7 -73q0 -83 39.5 -126t109.5 -43q83 0 141 58.5
t75 159.5l52 288q3 17 3 30z" />
    <glyph glyph-name="Uacute" unicode="&#xda;" horiz-adv-x="618" 
d="M304 678q-4 0 -5.5 4.5t1.5 6.5q40 18 114 60l58 32q4 2 20.5 -3.5t29 -13t5.5 -8.5q-118 -30 -222 -78h-1zM567 552q0 31 -15.5 46t-47.5 15q-4 0 -4 6t4 6l39 -1q30 -2 48 -2q17 0 45 2l35 1q4 0 4 -6t-4 -6q-37 0 -58.5 -23t-30.5 -71l-50 -286q-21 -117 -90 -181.5
t-167 -64.5q-85 0 -132 47.5t-47 131.5q0 29 6 60l56 319q3 18 3 30q0 23 -14.5 30.5t-55.5 7.5q-3 0 -3 6t3 6l45 -1q36 -2 58 -2q27 0 65 2l39 1q4 0 4 -6t-4 -6q-35 0 -53 -6t-26.5 -21t-13.5 -46l-51 -282q-7 -38 -7 -73q0 -83 39.5 -126t109.5 -43q83 0 141 58.5
t75 159.5l52 288q3 17 3 30z" />
    <glyph glyph-name="Ucircumflex" unicode="&#xdb;" horiz-adv-x="618" 
d="M319 660q-3 0 -5 2.5t0 4.5l105 92q5 5 9 5q6 0 9 -5l72 -92v-1q0 -3 -2.5 -5.5t-4.5 -0.5l-83 62l-99 -62h-1zM567 552q0 31 -15.5 46t-47.5 15q-4 0 -4 6t4 6l39 -1q30 -2 48 -2q17 0 45 2l35 1q4 0 4 -6t-4 -6q-37 0 -58.5 -23t-30.5 -71l-50 -286
q-21 -117 -90 -181.5t-167 -64.5q-85 0 -132 47.5t-47 131.5q0 29 6 60l56 319q3 18 3 30q0 23 -14.5 30.5t-55.5 7.5q-3 0 -3 6t3 6l45 -1q36 -2 58 -2q27 0 65 2l39 1q4 0 4 -6t-4 -6q-35 0 -53 -6t-26.5 -21t-13.5 -46l-51 -282q-7 -38 -7 -73q0 -83 39.5 -126t109.5 -43
q83 0 141 58.5t75 159.5l52 288q3 17 3 30z" />
    <glyph glyph-name="Udieresis" unicode="&#xdc;" horiz-adv-x="618" 
d="M310 730q-11 10 -11 28t11 28t29 10q19 0 29 -10t10 -28t-10 -28t-29 -10q-18 0 -29 10zM485.5 730q-10.5 10 -10.5 28t10.5 28t29.5 10q18 0 28 -10t10 -28t-10 -28t-28 -10q-19 0 -29.5 10zM567 552q0 31 -15.5 46t-47.5 15q-4 0 -4 6t4 6l39 -1q30 -2 48 -2q17 0 45 2
l35 1q4 0 4 -6t-4 -6q-37 0 -58.5 -23t-30.5 -71l-50 -286q-21 -117 -90 -181.5t-167 -64.5q-85 0 -132 47.5t-47 131.5q0 29 6 60l56 319q3 18 3 30q0 23 -14.5 30.5t-55.5 7.5q-3 0 -3 6t3 6l45 -1q36 -2 58 -2q27 0 65 2l39 1q4 0 4 -6t-4 -6q-35 0 -53 -6t-26.5 -21
t-13.5 -46l-51 -282q-7 -38 -7 -73q0 -83 39.5 -126t109.5 -43q83 0 141 58.5t75 159.5l52 288q3 17 3 30z" />
    <glyph glyph-name="Yacute" unicode="&#xdd;" horiz-adv-x="527" 
d="M291 678q-4 0 -5 4.5t2 6.5q46 21 122 65l50 28q4 2 20.5 -4t29 -13.5t5.5 -8.5q-62 -15 -113.5 -33.5t-108.5 -43.5zM603 619q0 -6 -4 -6q-63 0 -130 -90l-159 -215l-40 -227q-4 -26 -4 -32q0 -22 14.5 -29.5t52.5 -7.5q4 0 4 -6t-4 -6q-26 0 -40 1l-58 1l-61 -1
q-14 -1 -39 -1q-4 0 -4 6t4 6q33 0 50 5.5t25 19.5t13 44l38 220l-102 241q-17 39 -35 55t-48 16q-4 0 -4 6t4 6l30 -1q22 -2 32 -2q26 0 68 2l47 1q2 0 2 -4q0 -3 -1.5 -5.5t-3.5 -2.5q-26 0 -37.5 -5t-11.5 -16q0 -7 5 -19l102 -246l141 197q29 41 29 62q0 27 -41 27
q-3 0 -3 6t3 6l39 -1q32 -2 56 -2q15 0 35 2l32 1q4 0 4 -6z" />
    <glyph glyph-name="Thorn" unicode="&#xde;" horiz-adv-x="531" 
d="M459 462q56 -37 56 -110q0 -21 -4 -40q-12 -62 -58.5 -105t-107 -64t-116.5 -21q-24 0 -41 4q-1 0 -1 3t1.5 7t4.5 3q14 -3 29 -3q49 0 97.5 17.5t84.5 52.5t47 86q5 20 5 45q0 69 -46.5 109.5t-114.5 40.5q-45 0 -78 -7l-70 -399q-3 -18 -3 -31q0 -16 7.5 -24t26.5 -11
t56 -3q2 0 2 -6t-2 -6q-32 0 -50 1l-75 1l-57 -1q-15 -1 -40 -1q-3 0 -3 6t3 6q33 0 49.5 5t25 19.5t14.5 44.5l81 463q4 17 4 32q0 22 -14.5 29.5t-52.5 7.5q-2 0 -2 6t2 6l40 -1q36 -2 57 -2q32 0 78 2l48 1q2 0 2 -6t-2 -6q-48 0 -69 -4.5t-30 -18.5t-15 -48l-9 -50
q43 7 98 7q86 0 142 -37z" />
    <glyph glyph-name="germandbls" unicode="&#xdf;" horiz-adv-x="441" 
d="M-97 -264.5q-14 10.5 -14 26.5q0 13 9 22t25 9q13 0 19 -7t11 -20q5 -12 10 -17.5t15 -5.5q13 0 21 15.5t17 58t24 136.5l80 495q22 131 80.5 204.5t138.5 73.5q46 0 65.5 -23.5t19.5 -55.5q0 -8 -2 -20q-6 -33 -24 -61t-49 -64q-26 -30 -40.5 -51.5t-18.5 -44.5
q-2 -14 -2 -19q0 -29 12 -55.5t37 -63.5q25 -40 38 -67.5t13 -59.5q0 -8 -2 -22q-4 -30 -21.5 -60t-46 -50t-63.5 -20q-33 0 -50 15.5t-17 35.5q0 12 7.5 20t20.5 8q11 0 16.5 -6.5t11.5 -18.5q7 -16 15 -24t25 -8q24 0 40.5 19t20.5 55q1 6 1 17q0 32 -12 58.5t-37 64.5
q-24 36 -36 61.5t-12 55.5q0 16 2 24q6 31 19.5 53.5t38.5 53.5q26 32 41.5 58.5t22.5 63.5q3 18 3 40q0 77 -58 77q-52 0 -94 -71t-61 -195l-75 -467q-16 -99 -33.5 -153t-43 -77.5t-65.5 -23.5q-29 0 -43 10.5z" />
    <glyph glyph-name="agrave" unicode="&#xe0;" horiz-adv-x="432" 
d="M254 727q-1 5 10.5 3.5t23.5 -6t12 -8.5v-240q0 -2 -4.5 -3t-4.5 2zM411 78q3 0 5 -3.5t0 -5.5q-35 -40 -61.5 -59t-50.5 -19q-16 0 -23 9.5t-7 31.5q0 21 6 57l19 111q-47 -96 -106.5 -154.5t-112.5 -58.5q-60 0 -60 74q0 8 2 30q10 71 52.5 143t99.5 118.5t108 46.5
q19 0 36 -7t28 -21q19 17 22 36q1 3 7 2t5 -3l-58 -317q-3 -16 -3 -28q0 -33 19 -33q23 0 70 49q1 1 3 1zM189 68q43 38 77.5 97.5t46.5 117.5q2 8 2 22q0 28 -16 45t-46 17q-37 0 -76 -32t-68.5 -87t-39.5 -121q-3 -21 -3 -38q0 -59 43 -59q37 0 80 38z" />
    <glyph glyph-name="aacute" unicode="&#xe1;" horiz-adv-x="432" 
d="M384.5 724.5q14.5 4.5 27 6t10.5 -3.5l-142 -254q-1 -3 -6.5 -1t-3.5 4l98 240q2 4 16.5 8.5zM411 78q3 0 5 -3.5t0 -5.5q-35 -40 -61.5 -59t-50.5 -19q-16 0 -23 9.5t-7 31.5q0 21 6 57l19 111q-47 -96 -106.5 -154.5t-112.5 -58.5q-60 0 -60 74q0 8 2 30
q10 71 52.5 143t99.5 118.5t108 46.5q19 0 36 -7t28 -21q19 17 22 36q1 3 7 2t5 -3l-58 -317q-3 -16 -3 -28q0 -33 19 -33q23 0 70 49q1 1 3 1zM189 68q43 38 77.5 97.5t46.5 117.5q2 8 2 22q0 28 -16 45t-46 17q-37 0 -76 -32t-68.5 -87t-39.5 -121q-3 -21 -3 -38
q0 -59 43 -59q37 0 80 38z" />
    <glyph glyph-name="acircumflex" unicode="&#xe2;" horiz-adv-x="432" 
d="M232 472q-3 0 -5.5 2t-1.5 3l102 249q1 5 10 5q8 0 8 -5l14 -249q0 -2 -5.5 -2.5t-5.5 1.5l-27 166l-86 -168q0 -2 -3 -2zM411 78q3 0 5 -3.5t0 -5.5q-35 -40 -61.5 -59t-50.5 -19q-16 0 -23 9.5t-7 31.5q0 21 6 57l19 111q-47 -96 -106.5 -154.5t-112.5 -58.5
q-60 0 -60 74q0 8 2 30q10 71 52.5 143t99.5 118.5t108 46.5q19 0 36 -7t28 -21q19 17 22 36q1 3 7 2t5 -3l-58 -317q-3 -16 -3 -28q0 -33 19 -33q23 0 70 49q1 1 3 1zM189 68q43 38 77.5 97.5t46.5 117.5q2 8 2 22q0 28 -16 45t-46 17q-37 0 -76 -32t-68.5 -87t-39.5 -121
q-3 -21 -3 -38q0 -59 43 -59q37 0 80 38z" />
    <glyph glyph-name="atilde" unicode="&#xe3;" horiz-adv-x="432" 
d="M422 549q3 0 5.5 -2.5t0.5 -4.5q-26 -34 -43 -46t-35 -12q-15 0 -31 3.5t-32 8.5t-34 9t-35 4q-16 0 -24.5 -5.5t-15 -12l-9.5 -9.5h-2q-3 0 -5 2.5t0 4.5q16 22 38.5 39.5t45.5 17.5q14 0 31.5 -4.5t20.5 -5.5q44 -14 74 -14q17 0 27.5 7t21.5 20h1zM411 78q3 0 5 -3.5
t0 -5.5q-35 -40 -61.5 -59t-50.5 -19q-16 0 -23 9.5t-7 31.5q0 21 6 57l19 111q-47 -96 -106.5 -154.5t-112.5 -58.5q-60 0 -60 74q0 8 2 30q10 71 52.5 143t99.5 118.5t108 46.5q19 0 36 -7t28 -21q19 17 22 36q1 3 7 2t5 -3l-58 -317q-3 -16 -3 -28q0 -33 19 -33
q23 0 70 49q1 1 3 1zM189 68q43 38 77.5 97.5t46.5 117.5q2 8 2 22q0 28 -16 45t-46 17q-37 0 -76 -32t-68.5 -87t-39.5 -121q-3 -21 -3 -38q0 -59 43 -59q37 0 80 38z" />
    <glyph glyph-name="adieresis" unicode="&#xe4;" horiz-adv-x="432" 
d="M193.5 491q-10.5 10 -10.5 28t10.5 28t28.5 10q19 0 29 -10t10 -28t-10 -28t-29 -10q-18 0 -28.5 10zM341.5 491q-10.5 10 -10.5 28t10.5 28t29.5 10t29 -10t10 -28t-10 -28t-29 -10t-29.5 10zM411 78q3 0 5 -3.5t0 -5.5q-35 -40 -61.5 -59t-50.5 -19q-16 0 -23 9.5
t-7 31.5q0 21 6 57l19 111q-47 -96 -106.5 -154.5t-112.5 -58.5q-60 0 -60 74q0 8 2 30q10 71 52.5 143t99.5 118.5t108 46.5q19 0 36 -7t28 -21q19 17 22 36q1 3 7 2t5 -3l-58 -317q-3 -16 -3 -28q0 -33 19 -33q23 0 70 49q1 1 3 1zM189 68q43 38 77.5 97.5t46.5 117.5
q2 8 2 22q0 28 -16 45t-46 17q-37 0 -76 -32t-68.5 -87t-39.5 -121q-3 -21 -3 -38q0 -59 43 -59q37 0 80 38z" />
    <glyph glyph-name="aring" unicode="&#xe5;" horiz-adv-x="432" 
d="M238.5 491.5q-19.5 23.5 -19.5 55.5q0 36 25.5 57t55.5 21t50.5 -23.5t20.5 -56.5q0 -35 -24.5 -56t-56.5 -21t-51.5 23.5zM260.5 603q-7.5 -12 -7.5 -36q0 -34 15 -62t38 -28q30 0 30 50q0 35 -17 61.5t-39 26.5q-12 0 -19.5 -12zM411 78q3 0 5 -3.5t0 -5.5
q-35 -40 -61.5 -59t-50.5 -19q-16 0 -23 9.5t-7 31.5q0 21 6 57l19 111q-47 -96 -106.5 -154.5t-112.5 -58.5q-60 0 -60 74q0 8 2 30q10 71 52.5 143t99.5 118.5t108 46.5q19 0 36 -7t28 -21q19 17 22 36q1 3 7 2t5 -3l-58 -317q-3 -16 -3 -28q0 -33 19 -33q23 0 70 49
q1 1 3 1zM189 68q43 38 77.5 97.5t46.5 117.5q2 8 2 22q0 28 -16 45t-46 17q-37 0 -76 -32t-68.5 -87t-39.5 -121q-3 -21 -3 -38q0 -59 43 -59q37 0 80 38z" />
    <glyph glyph-name="ae" unicode="&#xe6;" horiz-adv-x="529" 
d="M509 384q15 -15 15 -37q0 -38 -46.5 -69t-166.5 -66q-5 -43 -5 -70q0 -124 74 -124q26 0 46.5 8t40.5 27h1q3 0 6 -3t1 -6q-34 -30 -63 -43t-61 -13q-46 0 -71 36t-25 100q0 25 5 60q-40 -90 -88 -143.5t-92 -53.5q-60 0 -60 74q0 8 2 30q10 72 48.5 143.5t90 118
t97.5 46.5q26 0 45 -16.5t22 -48.5q30 32 66 48.5t70 16.5q33 0 48 -15zM471 335q0 18 -10 31.5t-33 13.5q-40 0 -72.5 -43t-43.5 -112q66 20 109 42.5t49 55.5q1 4 1 12zM175.5 68q35.5 38 64 97.5t38.5 117.5q2 8 2 23q0 27 -13 44t-37 17q-32 0 -66.5 -32t-60 -87
t-34.5 -121q-3 -21 -3 -37q0 -30 10 -45t33 -15q31 0 66.5 38z" />
    <glyph glyph-name="ccedilla" unicode="&#xe7;" horiz-adv-x="345" 
d="M310 382.5q25 -16.5 22 -40.5q-1 -12 -8 -20.5t-20 -8.5q-22 0 -33 29q-4 14 -18 25.5t-38 11.5q-51 0 -82.5 -41t-43.5 -106q-7 -40 -7 -66q0 -65 28 -106.5t83 -41.5q33 0 58 13t53 36l2 1q3 0 5.5 -4t0.5 -6q-78 -68 -149 -71q-11 -27 -11 -43q0 -23 20 -48
q16 -21 24 -38t8 -34q0 -8 -1 -12q-4 -31 -31 -59t-68 -28q-20 0 -34.5 9t-14.5 27q0 6 1 9q1 8 8 13t17 5t15 -5.5t13 -17.5q6 -11 10.5 -16t12.5 -5q30 0 39 41q4 31 -34 77q-18 21 -18 46q0 17 8 32l24 47q-61 2 -91.5 46.5t-30.5 108.5q0 27 7 60q13 61 46.5 105.5
t77.5 68t88 23.5q37 0 62 -16.5z" />
    <glyph glyph-name="egrave" unicode="&#xe8;" horiz-adv-x="339" 
d="M207 727q-1 5 10.5 3.5t23.5 -6t12 -8.5v-240q0 -2 -4.5 -3t-4.5 2zM290 296.5q-33 -28.5 -88 -50t-118 -31.5q-5 -25 -5 -56q0 -64 28 -101.5t80 -37.5q58 0 103 33h2q3 0 5.5 -3t-0.5 -6q-71 -56 -143 -56q-62 0 -94 40t-32 104q0 23 5 53q9 50 42 100t81.5 82
t101.5 32q31 0 48 -11.5t17 -31.5q0 -31 -33 -59.5zM132.5 332q-32.5 -40 -45.5 -103q74 12 121 36t56 59q2 5 2 14q0 18 -15 26t-36 8q-50 0 -82.5 -40z" />
    <glyph glyph-name="eacute" unicode="&#xe9;" horiz-adv-x="339" 
d="M337.5 724.5q14.5 4.5 27 6t10.5 -3.5l-142 -254q-1 -3 -6.5 -1t-3.5 4l98 240q2 4 16.5 8.5zM306 387.5q17 -11.5 17 -31.5q0 -31 -33 -59.5t-88 -50t-118 -31.5q-5 -25 -5 -56q0 -64 28 -101.5t80 -37.5q58 0 103 33h2q3 0 5.5 -3t-0.5 -6q-71 -56 -143 -56
q-62 0 -94 40t-32 104q0 23 5 53q9 50 42 100t81.5 82t101.5 32q31 0 48 -11.5zM266 338q0 18 -15 26t-36 8q-50 0 -82.5 -40t-45.5 -103q74 12 121 36t56 59q2 5 2 14z" />
    <glyph glyph-name="ecircumflex" unicode="&#xea;" horiz-adv-x="339" 
d="M172 473q-3 0 -5.5 1.5t-1.5 3.5l101 249q3 5 11 5t8 -5l14 -249q0 -3 -6 -3.5t-6 2.5l-26 166l-86 -169q0 -1 -3 -1zM290 296.5q-33 -28.5 -88 -50t-118 -31.5q-5 -25 -5 -56q0 -64 28 -101.5t80 -37.5q58 0 103 33h2q3 0 5.5 -3t-0.5 -6q-71 -56 -143 -56q-62 0 -94 40
t-32 104q0 23 5 53q9 50 42 100t81.5 82t101.5 32q31 0 48 -11.5t17 -31.5q0 -31 -33 -59.5zM132.5 332q-32.5 -40 -45.5 -103q74 12 121 36t56 59q2 5 2 14q0 18 -15 26t-36 8q-50 0 -82.5 -40z" />
    <glyph glyph-name="edieresis" unicode="&#xeb;" horiz-adv-x="339" 
d="M146.5 491q-10.5 10 -10.5 28t10.5 28t28.5 10q19 0 29 -10t10 -28t-10 -28t-29 -10q-18 0 -28.5 10zM353 547q10 -10 10 -28t-10 -28t-29 -10t-29.5 10t-10.5 28t10.5 28t29.5 10t29 -10zM306 387.5q17 -11.5 17 -31.5q0 -31 -33 -59.5t-88 -50t-118 -31.5
q-5 -25 -5 -56q0 -64 28 -101.5t80 -37.5q58 0 103 33h2q3 0 5.5 -3t-0.5 -6q-71 -56 -143 -56q-62 0 -94 40t-32 104q0 23 5 53q9 50 42 100t81.5 82t101.5 32q31 0 48 -11.5zM266 338q0 18 -15 26t-36 8q-50 0 -82.5 -40t-45.5 -103q74 12 121 36t56 59q2 5 2 14z" />
    <glyph glyph-name="igrave" unicode="&#xec;" horiz-adv-x="247" 
d="M121 727q-1 5 10.5 3.5t23.5 -6t12 -8.5v-240q0 -2 -4.5 -3t-4.5 2zM85 0.5q-8 9.5 -8 33.5q0 23 7 55l41 208q3 17 3 28q0 16 -5.5 24.5t-14.5 8.5q-12 0 -31.5 -12t-40.5 -35q-1 -1 -3 -1q-3 0 -5.5 3.5t0.5 5.5q34 39 62 57.5t52 18.5q17 0 24.5 -9.5t7.5 -31.5
q0 -23 -7 -57l-40 -208q-3 -16 -3 -29q0 -32 20 -32q12 0 31 12.5t40 34.5q1 1 3 1q4 0 6 -3.5t-1 -5.5q-66 -76 -113 -76q-17 0 -25 9.5z" />
    <glyph glyph-name="iacute" unicode="&#xed;" horiz-adv-x="247" 
d="M140.5 472q-5.5 2 -3.5 4l98 240q2 4 16.5 8.5t27 6t10.5 -3.5l-142 -254q-1 -3 -6.5 -1zM85 0.5q-8 9.5 -8 33.5q0 23 7 55l41 208q3 17 3 28q0 16 -5.5 24.5t-14.5 8.5q-12 0 -31.5 -12t-40.5 -35q-1 -1 -3 -1q-3 0 -5.5 3.5t0.5 5.5q34 39 62 57.5t52 18.5
q17 0 24.5 -9.5t7.5 -31.5q0 -23 -7 -57l-40 -208q-3 -16 -3 -29q0 -32 20 -32q12 0 31 12.5t40 34.5q1 1 3 1q4 0 6 -3.5t-1 -5.5q-66 -76 -113 -76q-17 0 -25 9.5z" />
    <glyph glyph-name="icircumflex" unicode="&#xee;" horiz-adv-x="247" 
d="M226 477q0 -2 -5.5 -2.5t-5.5 1.5l-27 166l-86 -168q0 -2 -3 -2t-5.5 2t-1.5 3l102 249q1 5 10 5q8 0 8 -5zM85 0.5q-8 9.5 -8 33.5q0 23 7 55l41 208q3 17 3 28q0 16 -5.5 24.5t-14.5 8.5q-12 0 -31.5 -12t-40.5 -35q-1 -1 -3 -1q-3 0 -5.5 3.5t0.5 5.5q34 39 62 57.5
t52 18.5q17 0 24.5 -9.5t7.5 -31.5q0 -23 -7 -57l-40 -208q-3 -16 -3 -29q0 -32 20 -32q12 0 31 12.5t40 34.5q1 1 3 1q4 0 6 -3.5t-1 -5.5q-66 -76 -113 -76q-17 0 -25 9.5z" />
    <glyph glyph-name="idieresis" unicode="&#xef;" horiz-adv-x="247" 
d="M70.5 491q-10.5 10 -10.5 28t10.5 28t29.5 10t29 -10t10 -28t-10 -28t-29 -10t-29.5 10zM198.5 491q-10.5 10 -10.5 28t10.5 28t28.5 10q19 0 29 -10t10 -28t-10 -28t-29 -10q-18 0 -28.5 10zM85 0.5q-8 9.5 -8 33.5q0 23 7 55l41 208q3 17 3 28q0 16 -5.5 24.5
t-14.5 8.5q-12 0 -31.5 -12t-40.5 -35q-1 -1 -3 -1q-3 0 -5.5 3.5t0.5 5.5q34 39 62 57.5t52 18.5q17 0 24.5 -9.5t7.5 -31.5q0 -23 -7 -57l-40 -208q-3 -16 -3 -29q0 -32 20 -32q12 0 31 12.5t40 34.5q1 1 3 1q4 0 6 -3.5t-1 -5.5q-66 -76 -113 -76q-17 0 -25 9.5z" />
    <glyph glyph-name="eth" unicode="&#xf0;" horiz-adv-x="401" 
d="M407 643q4 0 7.5 -8t-0.5 -9l-99 -47q32 -59 49 -128.5t17 -140.5q0 -44 -8 -94q-13 -74 -46 -125.5t-78.5 -77.5t-94.5 -26q-60 0 -93 42.5t-33 108.5q0 27 4 48q12 69 46.5 117t79 72t84.5 24q25 0 48 -9.5t40 -27.5q-11 108 -55 198l-135 -64q-3 -2 -7.5 7t-0.5 10
l135 64q-48 92 -118 135q-4 2 3.5 6.5t18.5 6.5t15 0q70 -43 120 -129l100 47h1zM268 53.5q37 48.5 55 150.5q7 35 7 69q0 53 -24.5 80.5t-77.5 27.5q-49 0 -89.5 -44.5t-54.5 -121.5q-5 -25 -5 -59q0 -67 27 -109t75 -42q50 0 87 48.5z" />
    <glyph glyph-name="ntilde" unicode="&#xf1;" horiz-adv-x="463" 
d="M154 482q-3 0 -5 2.5t0 4.5q16 22 38.5 39.5t45.5 17.5q14 0 31.5 -4.5t20.5 -5.5q44 -14 74 -14q17 0 27.5 7t21.5 20h1q3 0 5.5 -2.5t0.5 -4.5q-26 -34 -43 -46t-35 -12q-15 0 -31 3.5t-32 8.5t-34 9t-35 4q-16 0 -24.5 -5.5t-15 -12l-9.5 -9.5h-2zM443 79
q3 0 5.5 -3.5t-0.5 -6.5q-35 -40 -61.5 -59t-50.5 -19q-17 0 -24 9.5t-7 32.5q0 20 6 56l29 159q7 31 7 57q0 60 -46 60q-34 0 -70.5 -43t-69 -124.5t-52.5 -191.5q-1 -6 -8 -10t-18 -4q-13 0 -17 1.5t-4 4.5l4 21q2 7 5.5 24t5.5 31l41 223q3 17 3 28q0 33 -20 33
q-12 0 -31.5 -12t-40.5 -35q-1 -1 -3 -1q-3 0 -5.5 3.5t0.5 5.5q66 76 115 76q16 0 23 -9.5t7 -31.5q0 -21 -6 -57l-23 -133q36 110 86.5 172.5t105.5 62.5q33 0 48.5 -17.5t15.5 -54.5q0 -20 -7 -60l-33 -178q-3 -16 -3 -27q0 -34 21 -34q22 0 69 49q2 2 3 2z" />
    <glyph glyph-name="ograve" unicode="&#xf2;" horiz-adv-x="396" 
d="M204 727q-1 5 10.5 3.5t23.5 -6t12 -8.5v-240q0 -2 -4.5 -3t-4.5 2zM62 28q-33 42 -33 111q0 30 5 54q11 57 41.5 104.5t74.5 74.5t92 27q61 0 94.5 -42.5t33.5 -108.5q0 -26 -6 -55q-12 -61 -45 -108t-77 -73t-89 -26q-58 0 -91 42zM269.5 48q36.5 37 48.5 101
q5 28 5 54q0 69 -28.5 120.5t-81.5 51.5q-46 0 -83 -38.5t-50 -100.5q-6 -27 -6 -56q0 -69 30.5 -119t83.5 -50q45 0 81.5 37z" />
    <glyph glyph-name="oacute" unicode="&#xf3;" horiz-adv-x="396" 
d="M223.5 472q-5.5 2 -3.5 4l98 240q2 4 16.5 8.5t27 6t10.5 -3.5l-142 -254q-1 -3 -6.5 -1zM62 28q-33 42 -33 111q0 30 5 54q11 57 41.5 104.5t74.5 74.5t92 27q61 0 94.5 -42.5t33.5 -108.5q0 -26 -6 -55q-12 -61 -45 -108t-77 -73t-89 -26q-58 0 -91 42zM269.5 48
q36.5 37 48.5 101q5 28 5 54q0 69 -28.5 120.5t-81.5 51.5q-46 0 -83 -38.5t-50 -100.5q-6 -27 -6 -56q0 -69 30.5 -119t83.5 -50q45 0 81.5 37z" />
    <glyph glyph-name="ocircumflex" unicode="&#xf4;" horiz-adv-x="396" 
d="M296 478q0 -3 -6 -3.5t-6 2.5l-26 166l-86 -169q0 -1 -3 -1t-5.5 1.5t-1.5 3.5l101 249q3 5 11 5t8 -5zM62 28q-33 42 -33 111q0 30 5 54q11 57 41.5 104.5t74.5 74.5t92 27q61 0 94.5 -42.5t33.5 -108.5q0 -26 -6 -55q-12 -61 -45 -108t-77 -73t-89 -26q-58 0 -91 42z
M269.5 48q36.5 37 48.5 101q5 28 5 54q0 69 -28.5 120.5t-81.5 51.5q-46 0 -83 -38.5t-50 -100.5q-6 -27 -6 -56q0 -69 30.5 -119t83.5 -50q45 0 81.5 37z" />
    <glyph glyph-name="otilde" unicode="&#xf5;" horiz-adv-x="396" 
d="M117 482q-3 0 -5 2.5t0 4.5q16 22 38.5 39.5t45.5 17.5q14 0 31.5 -4.5t20.5 -5.5q44 -14 74 -14q17 0 27.5 7t21.5 20h1q3 0 5.5 -2.5t0.5 -4.5q-26 -34 -43 -46t-35 -12q-15 0 -31 3.5t-32 8.5t-34 9t-35 4q-16 0 -24.5 -5.5t-15 -12l-9.5 -9.5h-2zM62 28
q-33 42 -33 111q0 30 5 54q11 57 41.5 104.5t74.5 74.5t92 27q61 0 94.5 -42.5t33.5 -108.5q0 -26 -6 -55q-12 -61 -45 -108t-77 -73t-89 -26q-58 0 -91 42zM269.5 48q36.5 37 48.5 101q5 28 5 54q0 69 -28.5 120.5t-81.5 51.5q-46 0 -83 -38.5t-50 -100.5q-6 -27 -6 -56
q0 -69 30.5 -119t83.5 -50q45 0 81.5 37z" />
    <glyph glyph-name="odieresis" unicode="&#xf6;" horiz-adv-x="396" 
d="M143.5 491q-10.5 10 -10.5 28t10.5 28t28.5 10q19 0 29 -10t10 -28t-10 -28t-29 -10q-18 0 -28.5 10zM291.5 491q-10.5 10 -10.5 28t10.5 28t29.5 10t29 -10t10 -28t-10 -28t-29 -10t-29.5 10zM62 28q-33 42 -33 111q0 30 5 54q11 57 41.5 104.5t74.5 74.5t92 27
q61 0 94.5 -42.5t33.5 -108.5q0 -26 -6 -55q-12 -61 -45 -108t-77 -73t-89 -26q-58 0 -91 42zM269.5 48q36.5 37 48.5 101q5 28 5 54q0 69 -28.5 120.5t-81.5 51.5q-46 0 -83 -38.5t-50 -100.5q-6 -27 -6 -56q0 -69 30.5 -119t83.5 -50q45 0 81.5 37z" />
    <glyph glyph-name="divide" unicode="&#xf7;" horiz-adv-x="384" 
d="M167.5 330.5q-10.5 10.5 -10.5 28.5q0 17 10.5 27t28.5 10q19 0 29 -10t10 -27q0 -18 -10 -28.5t-29 -10.5q-18 0 -28.5 10.5zM30.5 177.5q-1.5 6.5 -1.5 13.5q0 6 1 11.5t3 5.5h331q2 0 3.5 -5.5t1.5 -12.5t-1.5 -13t-3.5 -6h-330q-2 0 -3.5 6.5zM168.5 -0.5
q-10.5 10.5 -10.5 28.5q0 17 10.5 27t29.5 10q18 0 28 -10t10 -27q0 -18 -10 -28.5t-28 -10.5q-19 0 -29.5 10.5z" />
    <glyph glyph-name="oslash" unicode="&#xf8;" horiz-adv-x="408" 
d="M388 399q4 0 9.5 -5t2.5 -8l-49 -51q19 -40 19 -87q0 -26 -6 -55q-12 -61 -45 -108t-77 -73t-89 -26q-61 0 -95 47l-45 -47l-2 -1q-4 0 -9 6t-2 9l48 50q-19 35 -19 88q0 31 5 55q11 57 41.5 104.5t74.5 74.5t92 27q64 0 99 -48l45 47zM74 180q0 -47 15 -88l212 219
q-14 29 -36 46.5t-52 17.5q-46 0 -83 -38.5t-50 -100.5q-6 -27 -6 -56zM323 202q0 48 -14 90l-212 -219q15 -29 38 -45.5t53 -16.5q45 0 81.5 37t48.5 101q5 28 5 53z" />
    <glyph glyph-name="ugrave" unicode="&#xf9;" horiz-adv-x="462" 
d="M229 727q-1 5 10.5 3.5t23.5 -6t12 -8.5v-240q0 -2 -4.5 -3t-4.5 2zM436 76q3 0 5.5 -3.5t-0.5 -5.5q-34 -39 -62 -57.5t-53 -18.5q-16 0 -23 9.5t-7 31.5q0 21 6 57l23 133q-36 -110 -86.5 -172.5t-105.5 -62.5q-33 0 -49 17t-16 54q0 23 8 61l36 178q3 17 3 28
q0 16 -5.5 24.5t-14.5 8.5q-22 0 -69 -49q-2 -2 -4 -2q-3 0 -5 3.5t1 6.5q35 40 61.5 59t50.5 19q16 0 24 -9.5t8 -31.5q0 -19 -8 -57l-32 -159q-7 -32 -7 -58q0 -59 46 -59q34 0 70.5 43t69 124.5t52.5 191.5q1 6 8 10t18 4q21 0 21 -6l-4 -21q-2 -7 -5.5 -24t-5.5 -31
l-41 -223q-3 -16 -3 -28q0 -33 20 -33q12 0 31.5 12t40.5 35q1 1 3 1z" />
    <glyph glyph-name="uacute" unicode="&#xfa;" horiz-adv-x="462" 
d="M248.5 472q-5.5 2 -3.5 4l98 240q2 4 16.5 8.5t27 6t10.5 -3.5l-142 -254q-1 -3 -6.5 -1zM436 76q3 0 5.5 -3.5t-0.5 -5.5q-34 -39 -62 -57.5t-53 -18.5q-16 0 -23 9.5t-7 31.5q0 21 6 57l23 133q-36 -110 -86.5 -172.5t-105.5 -62.5q-33 0 -49 17t-16 54q0 23 8 61
l36 178q3 17 3 28q0 16 -5.5 24.5t-14.5 8.5q-22 0 -69 -49q-2 -2 -4 -2q-3 0 -5 3.5t1 6.5q35 40 61.5 59t50.5 19q16 0 24 -9.5t8 -31.5q0 -19 -8 -57l-32 -159q-7 -32 -7 -58q0 -59 46 -59q34 0 70.5 43t69 124.5t52.5 191.5q1 6 8 10t18 4q21 0 21 -6l-4 -21
q-2 -7 -5.5 -24t-5.5 -31l-41 -223q-3 -16 -3 -28q0 -33 20 -33q12 0 31.5 12t40.5 35q1 1 3 1z" />
    <glyph glyph-name="ucircumflex" unicode="&#xfb;" horiz-adv-x="462" 
d="M194 473q-3 0 -5.5 1.5t-1.5 3.5l101 249q3 5 11 5t8 -5l14 -249q0 -3 -6 -3.5t-6 2.5l-26 166l-86 -169q0 -1 -3 -1zM436 76q3 0 5.5 -3.5t-0.5 -5.5q-34 -39 -62 -57.5t-53 -18.5q-16 0 -23 9.5t-7 31.5q0 21 6 57l23 133q-36 -110 -86.5 -172.5t-105.5 -62.5
q-33 0 -49 17t-16 54q0 23 8 61l36 178q3 17 3 28q0 16 -5.5 24.5t-14.5 8.5q-22 0 -69 -49q-2 -2 -4 -2q-3 0 -5 3.5t1 6.5q35 40 61.5 59t50.5 19q16 0 24 -9.5t8 -31.5q0 -19 -8 -57l-32 -159q-7 -32 -7 -58q0 -59 46 -59q34 0 70.5 43t69 124.5t52.5 191.5q1 6 8 10
t18 4q21 0 21 -6l-4 -21q-2 -7 -5.5 -24t-5.5 -31l-41 -223q-3 -16 -3 -28q0 -33 20 -33q12 0 31.5 12t40.5 35q1 1 3 1z" />
    <glyph glyph-name="udieresis" unicode="&#xfc;" horiz-adv-x="462" 
d="M168.5 491q-10.5 10 -10.5 28t10.5 28t28.5 10q19 0 29 -10t10 -28t-10 -28t-29 -10q-18 0 -28.5 10zM316.5 491q-10.5 10 -10.5 28t10.5 28t29.5 10t29 -10t10 -28t-10 -28t-29 -10t-29.5 10zM436 76q3 0 5.5 -3.5t-0.5 -5.5q-34 -39 -62 -57.5t-53 -18.5q-16 0 -23 9.5
t-7 31.5q0 21 6 57l23 133q-36 -110 -86.5 -172.5t-105.5 -62.5q-33 0 -49 17t-16 54q0 23 8 61l36 178q3 17 3 28q0 16 -5.5 24.5t-14.5 8.5q-22 0 -69 -49q-2 -2 -4 -2q-3 0 -5 3.5t1 6.5q35 40 61.5 59t50.5 19q16 0 24 -9.5t8 -31.5q0 -19 -8 -57l-32 -159
q-7 -32 -7 -58q0 -59 46 -59q34 0 70.5 43t69 124.5t52.5 191.5q1 6 8 10t18 4q21 0 21 -6l-4 -21q-2 -7 -5.5 -24t-5.5 -31l-41 -223q-3 -16 -3 -28q0 -33 20 -33q12 0 31.5 12t40.5 35q1 1 3 1z" />
    <glyph glyph-name="yacute" unicode="&#xfd;" horiz-adv-x="440" 
d="M229.5 472q-5.5 2 -3.5 4l98 240q2 4 16.5 8.5t27 6t10.5 -3.5l-142 -254q-1 -3 -6.5 -1zM402 345q0 -84 -76.5 -236.5t-177 -271t-167.5 -118.5q-17 0 -27 9.5t-8 27.5q5 22 35 22q32 0 64.5 8.5t55.5 25.5q32 22 86 98l1 48q0 188 -31.5 292t-85.5 104q-32 0 -52 -38
q-1 -3 -6 -3q-7 0 -6 6q19 39 39.5 57.5t47.5 18.5q43 0 74 -48.5t47 -133t16 -188.5q0 -35 -1 -53q44 70 78 137t44 107q5 25 5 43q0 37 -14 86q-5 17 -5 23q0 12 8 20t22 8q34 0 34 -51z" />
    <glyph glyph-name="thorn" unicode="&#xfe;" horiz-adv-x="408" 
d="M364 363.5q25 -29.5 25 -77.5q0 -17 -3 -35q-16 -77 -57 -134.5t-91 -87.5t-93 -30q-34 0 -62 4l-32 -181q-3 -17 -3 -27q0 -19 9 -27.5t29 -8.5q5 0 25 2h1q3 0 4 -5t-3 -6l-168 -25q-4 -1 -5 5t3 7q24 4 34.5 10t16.5 20.5t12 47.5l86 474l-44 -34h-1q-3 0 -6 3.5
t0 4.5q26 23 55 46l58 318q2 14 2 18q0 25 -22 25q-19 0 -51 -16h-2q-4 0 -5 4.5t2 6.5l123 60h2q4 0 7 -3t2 -5l-67 -375q81 51 151 51q43 0 68 -29.5zM334 261q0 44 -19 71.5t-59 27.5q-51 0 -115 -39l-50 -277q36 -17 80 -17q68 0 105 48.5t54 144.5q4 28 4 41z" />
    <glyph glyph-name="ydieresis" unicode="&#xff;" horiz-adv-x="440" 
d="M149.5 491q-10.5 10 -10.5 28t10.5 28t28.5 10q19 0 29 -10t10 -28t-10 -28t-29 -10q-18 0 -28.5 10zM297.5 491q-10.5 10 -10.5 28t10.5 28t29.5 10t29 -10t10 -28t-10 -28t-29 -10t-29.5 10zM402 345q0 -84 -76.5 -236.5t-177 -271t-167.5 -118.5q-17 0 -27 9.5
t-8 27.5q5 22 35 22q32 0 64.5 8.5t55.5 25.5q32 22 86 98l1 48q0 188 -31.5 292t-85.5 104q-32 0 -52 -38q-1 -3 -6 -3q-7 0 -6 6q19 39 39.5 57.5t47.5 18.5q43 0 74 -48.5t47 -133t16 -188.5q0 -35 -1 -53q44 70 78 137t44 107q5 25 5 43q0 37 -14 86q-5 17 -5 23
q0 12 8 20t22 8q34 0 34 -51z" />
    <glyph glyph-name="Amacron" unicode="&#x100;" horiz-adv-x="599" 
d="M257 726q0 4 1.5 8t3.5 4h251q5 0 5 -12q0 -13 -5 -13h-251q-5 0 -5 13zM565 6q0 -6 -4 -6q-15 0 -45 2q-34 2 -54 2q-19 0 -51 -2q-30 -2 -44 -2q-3 0 -3 6t3 6q40 0 54.5 9.5t14.5 35.5q0 7 -2 27l-30 203h-191l-84 -154q-33 -59 -33 -87q0 -20 15.5 -27t46.5 -7
q4 0 3.5 -6t-4.5 -6q-11 0 -43 2q-36 2 -56 2q-21 0 -49 -2t-43 -2q-4 0 -4 6t4 6q66 0 128 108l288 515q2 3 7 3q9 0 11 -5l83 -549q4 -30 10.5 -44.5t21.5 -21t46 -6.5q4 0 4 -6zM223 305h178l-38 254z" />
    <glyph glyph-name="amacron" unicode="&#x101;" horiz-adv-x="432" 
d="M422 493q0 -13 -5 -13h-240q-2 0 -3.5 4t-1.5 9q0 13 5 13h240q5 0 5 -13zM411 78q3 0 5 -3.5t0 -5.5q-35 -40 -61.5 -59t-50.5 -19q-16 0 -23 9.5t-7 31.5q0 21 6 57l19 111q-47 -96 -106.5 -154.5t-112.5 -58.5q-60 0 -60 74q0 8 2 30q10 71 52.5 143t99.5 118.5
t108 46.5q19 0 36 -7t28 -21q19 17 22 36q1 3 7 2t5 -3l-58 -317q-3 -16 -3 -28q0 -33 19 -33q23 0 70 49q1 1 3 1zM189 68q43 38 77.5 97.5t46.5 117.5q2 8 2 22q0 28 -16 45t-46 17q-37 0 -76 -32t-68.5 -87t-39.5 -121q-3 -21 -3 -38q0 -59 43 -59q37 0 80 38z" />
    <glyph glyph-name="Abreve" unicode="&#x102;" horiz-adv-x="599" 
d="M338.5 691.5q-21.5 25.5 -21.5 58.5q0 6 12 11t22 5q8 0 8 -3q2 -31 18.5 -49.5t45.5 -18.5q23 0 40 15t33 49q2 3 6 3t7.5 -2t2.5 -4q-21 -45 -46.5 -67.5t-62.5 -22.5q-43 0 -64.5 25.5zM565 6q0 -6 -4 -6q-15 0 -45 2q-34 2 -54 2q-19 0 -51 -2q-30 -2 -44 -2
q-3 0 -3 6t3 6q40 0 54.5 9.5t14.5 35.5q0 7 -2 27l-30 203h-191l-84 -154q-33 -59 -33 -87q0 -20 15.5 -27t46.5 -7q4 0 3.5 -6t-4.5 -6q-11 0 -43 2q-36 2 -56 2q-21 0 -49 -2t-43 -2q-4 0 -4 6t4 6q66 0 128 108l288 515q2 3 7 3q9 0 11 -5l83 -549q4 -30 10.5 -44.5
t21.5 -21t46 -6.5q4 0 4 -6zM223 305h178l-38 254z" />
    <glyph glyph-name="abreve" unicode="&#x103;" horiz-adv-x="432" 
d="M221.5 500.5q-21.5 25.5 -21.5 58.5q0 6 12 11t22 5q8 0 8 -3q2 -31 18.5 -49.5t45.5 -18.5q23 0 40 15t33 49q2 3 6 3t7.5 -2t2.5 -4q-21 -45 -46.5 -67.5t-62.5 -22.5q-43 0 -64.5 25.5zM411 78q3 0 5 -3.5t0 -5.5q-35 -40 -61.5 -59t-50.5 -19q-16 0 -23 9.5t-7 31.5
q0 21 6 57l19 111q-47 -96 -106.5 -154.5t-112.5 -58.5q-60 0 -60 74q0 8 2 30q10 71 52.5 143t99.5 118.5t108 46.5q19 0 36 -7t28 -21q19 17 22 36q1 3 7 2t5 -3l-58 -317q-3 -16 -3 -28q0 -33 19 -33q23 0 70 49q1 1 3 1zM189 68q43 38 77.5 97.5t46.5 117.5q2 8 2 22
q0 28 -16 45t-46 17q-37 0 -76 -32t-68.5 -87t-39.5 -121q-3 -21 -3 -38q0 -59 43 -59q37 0 80 38z" />
    <glyph glyph-name="Aogonek" unicode="&#x104;" horiz-adv-x="599" 
d="M565 6q0 -6 -4 -6q-32 0 -42 1h-20q-50 0 -89.5 -21t-61.5 -57t-22 -81q0 -40 23.5 -65t66.5 -25q18 0 29 3.5t23 10.5h1q2 0 4 -3t0 -5q-24 -18 -44 -25.5t-45 -7.5q-47 0 -71.5 21.5t-24.5 61.5q0 18 2 27q7 44 28 75t57 69q29 31 42.5 51t13.5 43q0 7 -1 11l-29 203
h-184l-82 -154q-35 -64 -35 -90q0 -18 14.5 -24.5t43.5 -6.5q4 0 3.5 -6t-4.5 -6q-11 0 -43 2q-36 2 -56 2q-21 0 -49 -2t-43 -2q-4 0 -4 6t4 6q74 0 133 108l283 515q2 3 7 3q9 0 11 -5l81 -537q5 -36 13 -53.5t23 -24t44 -6.5q4 0 4 -6zM227 305h172l-36 253z" />
    <glyph glyph-name="aogonek" unicode="&#x105;" horiz-adv-x="432" 
d="M411 78q3 0 5 -3.5t0 -5.5q-32 -33 -57 -56q-43 -42 -67 -68.5t-40 -58t-16 -65.5q0 -31 16.5 -50t48.5 -19q19 0 31 6.5t31 20.5h1q3 0 5.5 -3.5t0.5 -5.5q-52 -45 -100 -45q-35 0 -55.5 21.5t-20.5 53.5q0 42 33 89t93 104q-10 -2 -16 -2q-16 0 -23 9.5t-7 31.5
q0 21 6 57l18 110q-48 -95 -106.5 -153.5t-111.5 -58.5q-60 0 -60 74q0 8 2 30q10 71 52.5 143t99.5 118.5t108 46.5q19 0 36 -7t28 -21q19 16 22 36q1 3 7 2t5 -3l-58 -317q-3 -16 -3 -28q0 -33 20 -33q22 0 69 49q1 1 3 1zM315 305q0 28 -16 45t-46 17q-37 0 -76 -32
t-68.5 -87t-39.5 -121q-3 -21 -3 -38q0 -59 43 -59q37 0 80 38t77.5 97.5t46.5 117.5q2 8 2 22z" />
    <glyph glyph-name="Cacute" unicode="&#x106;" horiz-adv-x="585" 
d="M366 678q-4 0 -5 4.5t2 6.5q46 21 122 65l50 28q4 2 20.5 -4t29 -13.5t5.5 -8.5q-62 -15 -113.5 -33.5t-108.5 -43.5zM123 60.5q-62 73.5 -62 183.5q0 31 7 75q16 91 72 163.5t134.5 113t158.5 40.5q42 0 81.5 -10t62.5 -27q6 -5 7.5 -9t0.5 -15l-8 -105q-1 -4 -6 -4
t-5 4q-5 77 -49 111t-121 34q-66 0 -122 -33.5t-93.5 -94.5t-51.5 -141q-8 -46 -8 -83q0 -76 25 -136t70.5 -94t105.5 -34t114.5 38t93.5 112q2 2 3 2q3 0 5.5 -2t1.5 -4l-30 -106q-4 -13 -6.5 -17t-11.5 -7q-88 -28 -176 -28q-131 0 -193 73.5z" />
    <glyph glyph-name="cacute" unicode="&#x107;" horiz-adv-x="345" 
d="M225.5 472q-5.5 2 -3.5 4l98 240q2 4 16.5 8.5t27 6t10.5 -3.5l-142 -254q-1 -3 -6.5 -1zM61.5 32q-31.5 45 -31.5 110q0 32 6 60q13 61 46.5 105.5t77.5 68t88 23.5q37 0 62 -16.5t22 -40.5q-1 -12 -8 -20.5t-20 -8.5q-22 0 -33 29q-4 14 -18 25.5t-38 11.5
q-51 0 -82.5 -41t-43.5 -106q-7 -40 -7 -66q0 -65 28 -106.5t83 -41.5q33 0 58 13t53 36l2 1q3 0 5.5 -4t0.5 -6q-81 -71 -156 -71q-63 0 -94.5 45z" />
    <glyph glyph-name="Ccircumflex" unicode="&#x108;" horiz-adv-x="585" 
d="M335 660q-3 0 -5 2.5t0 4.5l105 92q5 5 9 5q6 0 9 -5l72 -92v-1q0 -3 -2.5 -5.5t-4.5 -0.5l-83 62l-99 -62h-1zM123 60.5q-62 73.5 -62 183.5q0 31 7 75q16 91 72 163.5t134.5 113t158.5 40.5q42 0 81.5 -10t62.5 -27q6 -5 7.5 -9t0.5 -15l-8 -105q-1 -4 -6 -4t-5 4
q-5 77 -49 111t-121 34q-66 0 -122 -33.5t-93.5 -94.5t-51.5 -141q-8 -46 -8 -83q0 -76 25 -136t70.5 -94t105.5 -34t114.5 38t93.5 112q2 2 3 2q3 0 5.5 -2t1.5 -4l-30 -106q-4 -13 -6.5 -17t-11.5 -7q-88 -28 -176 -28q-131 0 -193 73.5z" />
    <glyph glyph-name="ccircumflex" unicode="&#x109;" horiz-adv-x="345" 
d="M298 478q0 -3 -6 -3.5t-6 2.5l-26 166l-86 -169q0 -1 -3 -1t-5.5 1.5t-1.5 3.5l101 249q3 5 11 5t8 -5zM61.5 32q-31.5 45 -31.5 110q0 32 6 60q13 61 46.5 105.5t77.5 68t88 23.5q37 0 62 -16.5t22 -40.5q-1 -12 -8 -20.5t-20 -8.5q-22 0 -33 29q-4 14 -18 25.5
t-38 11.5q-51 0 -82.5 -41t-43.5 -106q-7 -40 -7 -66q0 -65 28 -106.5t83 -41.5q33 0 58 13t53 36l2 1q3 0 5.5 -4t0.5 -6q-81 -71 -156 -71q-63 0 -94.5 45z" />
    <glyph glyph-name="Cdotaccent" unicode="&#x10a;" horiz-adv-x="585" 
d="M404 718q-11 10 -11 28t11 28t29 10q19 0 29 -10t10 -28t-10 -28t-29 -10q-18 0 -29 10zM123 60.5q-62 73.5 -62 183.5q0 31 7 75q16 91 72 163.5t134.5 113t158.5 40.5q42 0 81.5 -10t62.5 -27q6 -5 7.5 -9t0.5 -15l-8 -105q-1 -4 -6 -4t-5 4q-5 77 -49 111t-121 34
q-66 0 -122 -33.5t-93.5 -94.5t-51.5 -141q-8 -46 -8 -83q0 -76 25 -136t70.5 -94t105.5 -34t114.5 38t93.5 112q2 2 3 2q3 0 5.5 -2t1.5 -4l-30 -106q-4 -13 -6.5 -17t-11.5 -7q-88 -28 -176 -28q-131 0 -193 73.5z" />
    <glyph glyph-name="cdotaccent" unicode="&#x10b;" horiz-adv-x="345" 
d="M227.5 527q-10.5 10 -10.5 29q0 17 10.5 27t29.5 10t29 -10t10 -27q0 -19 -10 -29t-29 -10t-29.5 10zM61.5 32q-31.5 45 -31.5 110q0 32 6 60q13 61 46.5 105.5t77.5 68t88 23.5q37 0 62 -16.5t22 -40.5q-1 -12 -8 -20.5t-20 -8.5q-22 0 -33 29q-4 14 -18 25.5t-38 11.5
q-51 0 -82.5 -41t-43.5 -106q-7 -40 -7 -66q0 -65 28 -106.5t83 -41.5q33 0 58 13t53 36l2 1q3 0 5.5 -4t0.5 -6q-81 -71 -156 -71q-63 0 -94.5 45z" />
    <glyph glyph-name="Ccaron" unicode="&#x10c;" horiz-adv-x="585" 
d="M344 768v1q0 2 3 4.5t4 1.5l82 -62l99 63h1q3 0 5.5 -3.5t-0.5 -4.5l-104 -93q-4 -4 -10 -4q-5 0 -9 4zM123 60.5q-62 73.5 -62 183.5q0 31 7 75q16 91 72 163.5t134.5 113t158.5 40.5q42 0 81.5 -10t62.5 -27q6 -5 7.5 -9t0.5 -15l-8 -105q-1 -4 -6 -4t-5 4
q-5 77 -49 111t-121 34q-66 0 -122 -33.5t-93.5 -94.5t-51.5 -141q-8 -46 -8 -83q0 -76 25 -136t70.5 -94t105.5 -34t114.5 38t93.5 112q2 2 3 2q3 0 5.5 -2t1.5 -4l-30 -106q-4 -13 -6.5 -17t-11.5 -7q-88 -28 -176 -28q-131 0 -193 73.5z" />
    <glyph glyph-name="ccaron" unicode="&#x10d;" horiz-adv-x="345" 
d="M218 726q0 3 6 3.5t6 -2.5l26 -166l86 169q0 1 3 1t5.5 -1.5t1.5 -3.5l-101 -249q-2 -5 -11 -5q-3 0 -5.5 1.5t-2.5 3.5zM61.5 32q-31.5 45 -31.5 110q0 32 6 60q13 61 46.5 105.5t77.5 68t88 23.5q37 0 62 -16.5t22 -40.5q-1 -12 -8 -20.5t-20 -8.5q-22 0 -33 29
q-4 14 -18 25.5t-38 11.5q-51 0 -82.5 -41t-43.5 -106q-7 -40 -7 -66q0 -65 28 -106.5t83 -41.5q33 0 58 13t53 36l2 1q3 0 5.5 -4t0.5 -6q-81 -71 -156 -71q-63 0 -94.5 45z" />
    <glyph glyph-name="Dcaron" unicode="&#x10e;" horiz-adv-x="606" 
d="M251 768v1q0 2 3 4.5t4 1.5l82 -62l99 63h1q3 0 5.5 -3.5t-0.5 -4.5l-104 -93q-4 -4 -10 -4q-5 0 -9 4zM177 -1q-12 1 -29 2t-38 1l-60 -1q-14 -1 -39 -1q-3 0 -3 6t3 6q33 0 49.5 5t25 19.5t13.5 44.5l82 463q4 26 4 32q0 22 -14.5 29.5t-52.5 7.5q-2 0 -2 6t2 6l41 -1
q38 -2 60 -2q31 0 62 3q38 2 50 2q79 0 137.5 -31.5t89.5 -87t31 -126.5q0 -34 -5 -59q-17 -97 -70.5 -171.5t-128 -115t-153.5 -40.5q-25 0 -55 3zM358.5 43q61.5 34 104 100t59.5 158q7 39 7 80q0 104 -50.5 168.5t-141.5 64.5q-38 0 -58.5 -5t-32.5 -20.5t-18 -46.5
l-79 -450q-4 -24 -4 -31q0 -27 18 -39.5t63 -12.5q71 0 132.5 34z" />
    <glyph glyph-name="dcaron" unicode="&#x10f;" horiz-adv-x="443" 
d="M523 724.5q10 -5.5 19.5 -14.5t8.5 -13l-69 -244q-1 -2 -6 -2t-5 2l41 272q1 5 11 -0.5zM441 725q3 0 6 -3t2 -5l-117 -628q-3 -16 -3 -28q0 -33 21 -33q20 0 69 49q2 2 3 2q3 0 5.5 -3.5t-0.5 -6.5q-36 -40 -62 -59t-50 -19q-17 0 -24.5 9.5t-7.5 31.5q0 23 7 57l20 105
q-46 -97 -98 -152t-108 -55q-35 0 -57.5 23.5t-22.5 73.5q0 22 4 42q13 73 54 135.5t98 100t115 37.5q29 0 51 -16l46 244q2 12 2 17q0 26 -23 26q-19 0 -51 -16h-2q-3 0 -4.5 5t2.5 6l123 60h2zM223.5 81.5q45.5 51.5 75 119t29.5 105.5q0 29 -16 45t-45 16
q-70 0 -122.5 -53.5t-69.5 -150.5q-4 -23 -4 -46q0 -43 16 -65t45 -22q46 0 91.5 51.5z" />
    <glyph glyph-name="Dcroat" unicode="&#x110;" horiz-adv-x="606" 
d="M468.5 595.5q58.5 -31.5 89.5 -87t31 -126.5q0 -34 -5 -59q-17 -97 -70.5 -171.5t-128 -115t-153.5 -40.5q-25 0 -55 3q-12 1 -29 2t-38 1l-60 -1q-14 -1 -39 -1q-3 0 -3 6t3 6q33 0 49.5 5t25 19.5t13.5 44.5l39 221h-85q-4 0 -4 9t4 9h88l40 224q4 26 4 32
q0 22 -14.5 29.5t-52.5 7.5q-2 0 -2 6t2 6l41 -1q38 -2 60 -2q31 0 62 3q38 2 50 2q79 0 137.5 -31.5zM529 381q0 104 -50.5 168.5t-141.5 64.5q-38 0 -58.5 -5t-32.5 -20.5t-18 -46.5l-39 -222h126q4 0 4 -9t-4 -9h-129l-37 -210q-4 -24 -4 -31q0 -27 18 -39.5t63 -12.5
q71 0 132.5 34t104 100t59.5 158q7 39 7 80z" />
    <glyph glyph-name="dcroat" unicode="&#x111;" horiz-adv-x="436" 
d="M484 510q0 -9 -4 -9h-71l-77 -412q-3 -16 -3 -28q0 -33 21 -33q20 0 69 49q2 2 3 2q3 0 5.5 -3.5t-0.5 -6.5q-36 -40 -62 -59t-50 -19q-17 0 -24.5 9.5t-7.5 31.5q0 23 7 57l20 105q-46 -97 -98 -152t-108 -55q-35 0 -57.5 23.5t-22.5 73.5q0 22 4 42q13 73 54 135.5
t98 100t115 37.5q29 0 51 -16l22 118h-175q-4 0 -4 9t4 9h179l20 108q2 12 2 17q0 26 -23 26q-19 0 -51 -16h-2q-3 0 -4.5 5t2.5 6l123 60h2q3 0 6 -3t2 -5l-37 -198h68q4 0 4 -9zM223.5 81.5q45.5 51.5 75 119t29.5 105.5q0 29 -16 45t-45 16q-70 0 -122.5 -53.5
t-69.5 -150.5q-4 -23 -4 -46q0 -43 16 -65t45 -22q46 0 91.5 51.5z" />
    <glyph glyph-name="Emacron" unicode="&#x112;" horiz-adv-x="510" 
d="M231.5 723q-1.5 4 -1.5 9q0 13 5 13h240q5 0 5 -13t-5 -13h-240q-2 0 -3.5 4zM509 616l-9 -59q-3 -15 -5 -31.5t-5 -31.5q-1 -4 -7 -3t-5 4q3 18 3 34q0 38 -17 60t-48 22h-99q-33 0 -48.5 -5t-23.5 -19t-13 -44l-37 -208h148q38 0 55 15t23 54q0 3 6 3q2 0 4.5 -1.5
t1.5 -3.5q-5 -30 -8 -42l-6 -35l-6 -39l-8 -52q-1 -4 -7 -3.5t-5 4.5q4 26 4 33q0 26 -14 37t-47 11h-144l-41 -231q-3 -18 -3 -30q0 -22 13.5 -29.5t51.5 -7.5h131q33 0 63 36t47 93q1 3 6.5 2t4.5 -4q-17 -54 -30 -130q-2 -8 -5.5 -11.5t-10.5 -3.5h-404q-2 0 -2 6t2 6
q34 0 50 5t24 19t14 45l82 463q3 18 3 31q0 23 -14 30.5t-52 7.5q-3 0 -3 6t3 6h381q8 0 6 -9z" />
    <glyph glyph-name="emacron" unicode="&#x113;" horiz-adv-x="339" 
d="M375 493q0 -13 -5 -13h-240q-2 0 -3.5 4t-1.5 9q0 13 5 13h240q5 0 5 -13zM306 387.5q17 -11.5 17 -31.5q0 -31 -33 -59.5t-88 -50t-118 -31.5q-5 -25 -5 -56q0 -64 28 -101.5t80 -37.5q58 0 103 33h2q3 0 5.5 -3t-0.5 -6q-71 -56 -143 -56q-62 0 -94 40t-32 104
q0 23 5 53q9 50 42 100t81.5 82t101.5 32q31 0 48 -11.5zM266 338q0 18 -15 26t-36 8q-50 0 -82.5 -40t-45.5 -103q74 12 121 36t56 59q2 5 2 14z" />
    <glyph glyph-name="Ebreve" unicode="&#x114;" horiz-adv-x="510" 
d="M281.5 691.5q-21.5 25.5 -21.5 58.5q0 6 12 11t22 5q8 0 8 -3q2 -31 18.5 -49.5t45.5 -18.5q23 0 40 15t33 49q2 3 6 3t7.5 -2t2.5 -4q-21 -45 -46.5 -67.5t-62.5 -22.5q-43 0 -64.5 25.5zM509 616l-9 -59q-3 -15 -5 -31.5t-5 -31.5q-1 -4 -7 -3t-5 4q3 18 3 34
q0 38 -17 60t-48 22h-99q-33 0 -48.5 -5t-23.5 -19t-13 -44l-37 -208h148q38 0 55 15t23 54q0 3 6 3q2 0 4.5 -1.5t1.5 -3.5q-5 -30 -8 -42l-6 -35l-6 -39l-8 -52q-1 -4 -7 -3.5t-5 4.5q4 26 4 33q0 26 -14 37t-47 11h-144l-41 -231q-3 -18 -3 -30q0 -22 13.5 -29.5
t51.5 -7.5h131q33 0 63 36t47 93q1 3 6.5 2t4.5 -4q-17 -54 -30 -130q-2 -8 -5.5 -11.5t-10.5 -3.5h-404q-2 0 -2 6t2 6q34 0 50 5t24 19t14 45l82 463q3 18 3 31q0 23 -14 30.5t-52 7.5q-3 0 -3 6t3 6h381q8 0 6 -9z" />
    <glyph glyph-name="ebreve" unicode="&#x115;" horiz-adv-x="339" 
d="M338 571q4 0 7.5 -2t2.5 -4q-21 -45 -46.5 -67.5t-62.5 -22.5q-43 0 -64.5 25.5t-21.5 58.5q0 6 12 11t22 5q8 0 8 -3q2 -31 18.5 -49.5t45.5 -18.5q23 0 40 15t33 49q2 3 6 3zM306 387.5q17 -11.5 17 -31.5q0 -31 -33 -59.5t-88 -50t-118 -31.5q-5 -25 -5 -56
q0 -64 28 -101.5t80 -37.5q58 0 103 33h2q3 0 5.5 -3t-0.5 -6q-71 -56 -143 -56q-62 0 -94 40t-32 104q0 23 5 53q9 50 42 100t81.5 82t101.5 32q31 0 48 -11.5zM266 338q0 18 -15 26t-36 8q-50 0 -82.5 -40t-45.5 -103q74 12 121 36t56 59q2 5 2 14z" />
    <glyph glyph-name="Edotaccent" unicode="&#x116;" horiz-adv-x="510" 
d="M317 718q-11 10 -11 28t11 28t29 10q19 0 29 -10t10 -28t-10 -28t-29 -10q-18 0 -29 10zM509 616l-9 -59q-3 -15 -5 -31.5t-5 -31.5q-1 -4 -7 -3t-5 4q3 18 3 34q0 38 -17 60t-48 22h-99q-33 0 -48.5 -5t-23.5 -19t-13 -44l-37 -208h148q38 0 55 15t23 54q0 3 6 3
q2 0 4.5 -1.5t1.5 -3.5q-5 -30 -8 -42l-6 -35l-6 -39l-8 -52q-1 -4 -7 -3.5t-5 4.5q4 26 4 33q0 26 -14 37t-47 11h-144l-41 -231q-3 -18 -3 -30q0 -22 13.5 -29.5t51.5 -7.5h131q33 0 63 36t47 93q1 3 6.5 2t4.5 -4q-17 -54 -30 -130q-2 -8 -5.5 -11.5t-10.5 -3.5h-404
q-2 0 -2 6t2 6q34 0 50 5t24 19t14 45l82 463q3 18 3 31q0 23 -14 30.5t-52 7.5q-3 0 -3 6t3 6h381q8 0 6 -9z" />
    <glyph glyph-name="edotaccent" unicode="&#x117;" horiz-adv-x="339" 
d="M228.5 527q-10.5 10 -10.5 29q0 17 10.5 27t29.5 10t29 -10t10 -27q0 -19 -10 -29t-29 -10t-29.5 10zM290 296.5q-33 -28.5 -88 -50t-118 -31.5q-5 -25 -5 -56q0 -64 28 -101.5t80 -37.5q58 0 103 33h2q3 0 5.5 -3t-0.5 -6q-71 -56 -143 -56q-62 0 -94 40t-32 104
q0 23 5 53q9 50 42 100t81.5 82t101.5 32q31 0 48 -11.5t17 -31.5q0 -31 -33 -59.5zM132.5 332q-32.5 -40 -45.5 -103q74 12 121 36t56 59q2 5 2 14q0 18 -15 26t-36 8q-50 0 -82.5 -40z" />
    <glyph glyph-name="Eogonek" unicode="&#x118;" horiz-adv-x="510" 
d="M509 616l-9 -59q-3 -15 -5 -31.5t-5 -31.5q-1 -4 -7 -3t-5 4q3 18 3 34q0 38 -17 60t-48 22h-99q-33 0 -48.5 -5t-23.5 -19t-13 -44l-37 -208h148q38 0 55 15t23 54q0 3 6 3q2 0 4.5 -1.5t1.5 -3.5q-5 -30 -8 -42l-6 -35l-6 -39l-8 -52q-1 -4 -7 -3.5t-5 4.5q4 26 4 33
q0 26 -14 37t-47 11h-144l-41 -231q-3 -18 -3 -30q0 -22 13.5 -29.5t51.5 -7.5h131q33 0 63 36t47 93q1 3 6.5 2t4.5 -4q-17 -54 -30 -130q-2 -8 -5.5 -11.5t-10.5 -3.5h-42q-45 -42 -72 -78t-33 -72q-3 -17 -3 -30q0 -33 16.5 -50.5t48.5 -17.5q19 0 31 6.5t31 20.5h1
q3 0 5.5 -3.5t0.5 -5.5q-51 -45 -100 -45q-36 0 -55.5 19.5t-19.5 54.5q0 6 2 22q7 40 41 84.5t89 94.5h-345q-2 0 -2 6t2 6q34 0 50 5t24 19t14 45l82 463q3 18 3 31q0 23 -14 30.5t-52 7.5q-3 0 -3 6t3 6h381q8 0 6 -9z" />
    <glyph glyph-name="eogonek" unicode="&#x119;" horiz-adv-x="346" 
d="M290 296.5q-33 -28.5 -88 -50t-118 -31.5q-5 -25 -5 -56q0 -64 28 -101.5t80 -37.5q47 0 84 21l17 12l1 -1l1 1h2q3 0 5.5 -3t-0.5 -6l-21 -15q-79 -65 -111 -104t-40 -79q-3 -14 -3 -26q0 -31 16 -49.5t49 -18.5q19 0 32.5 7t29.5 20h1q3 0 6 -3.5t0 -5.5
q-51 -45 -99 -45q-36 0 -56 20t-20 54q0 6 2 22q7 40 37.5 82t95.5 95q-30 -10 -62 -10q-62 0 -94 40t-32 104q0 23 5 53q9 50 42 100t81.5 82t101.5 32q31 0 48 -11.5t17 -31.5q0 -31 -33 -59.5zM132.5 332q-32.5 -40 -45.5 -103q74 12 121 36t56 59q2 5 2 14q0 18 -15 26
t-36 8q-50 0 -82.5 -40z" />
    <glyph glyph-name="Ecaron" unicode="&#x11a;" horiz-adv-x="510" 
d="M257 768v1q0 2 3 4.5t4 1.5l82 -62l99 63h1q3 0 5.5 -3.5t-0.5 -4.5l-104 -93q-4 -4 -10 -4q-5 0 -9 4zM509 616l-9 -59q-3 -15 -5 -31.5t-5 -31.5q-1 -4 -7 -3t-5 4q3 18 3 34q0 38 -17 60t-48 22h-99q-33 0 -48.5 -5t-23.5 -19t-13 -44l-37 -208h148q38 0 55 15t23 54
q0 3 6 3q2 0 4.5 -1.5t1.5 -3.5q-5 -30 -8 -42l-6 -35l-6 -39l-8 -52q-1 -4 -7 -3.5t-5 4.5q4 26 4 33q0 26 -14 37t-47 11h-144l-41 -231q-3 -18 -3 -30q0 -22 13.5 -29.5t51.5 -7.5h131q33 0 63 36t47 93q1 3 6.5 2t4.5 -4q-17 -54 -30 -130q-2 -8 -5.5 -11.5t-10.5 -3.5
h-404q-2 0 -2 6t2 6q34 0 50 5t24 19t14 45l82 463q3 18 3 31q0 23 -14 30.5t-52 7.5q-3 0 -3 6t3 6h381q8 0 6 -9z" />
    <glyph glyph-name="ecaron" unicode="&#x11b;" horiz-adv-x="339" 
d="M346 731q3 0 5.5 -1.5t1.5 -3.5l-101 -249q-2 -5 -11 -5q-3 0 -5.5 1.5t-2.5 3.5l-14 249q0 3 6 3.5t6 -2.5l26 -166l86 169q0 1 3 1zM306 387.5q17 -11.5 17 -31.5q0 -31 -33 -59.5t-88 -50t-118 -31.5q-5 -25 -5 -56q0 -64 28 -101.5t80 -37.5q58 0 103 33h2
q3 0 5.5 -3t-0.5 -6q-71 -56 -143 -56q-62 0 -94 40t-32 104q0 23 5 53q9 50 42 100t81.5 82t101.5 32q31 0 48 -11.5zM266 338q0 18 -15 26t-36 8q-50 0 -82.5 -40t-45.5 -103q74 12 121 36t56 59q2 5 2 14z" />
    <glyph glyph-name="Gcircumflex" unicode="&#x11c;" horiz-adv-x="630" 
d="M360 660q-3 0 -5 2.5t0 4.5l105 92q5 5 9 5q6 0 9 -5l72 -92v-1q0 -3 -2.5 -5.5t-4.5 -0.5l-83 62l-99 -62h-1zM185.5 20q-59.5 32 -90.5 88.5t-31 130.5q0 33 6 69q17 95 75 169.5t142.5 116.5t180.5 42q41 0 76.5 -10t56.5 -28q6 -6 6 -13l-1 -10l-8 -105
q-1 -4 -6.5 -4t-5.5 4q-3 71 -43.5 108t-113.5 37q-117 0 -195 -73t-102 -198q-8 -46 -8 -83q0 -77 28.5 -135t80.5 -89.5t121 -31.5q46 0 72 9t42 35t24 77q8 43 8 63q0 19 -7.5 28.5t-25.5 12.5t-53 3q-2 0 -3.5 2.5t-1.5 5.5t1.5 5.5t3.5 2.5q63 -5 104 -5q39 0 82 3
q4 0 4 -7t-4 -7q-22 1 -32.5 -6.5t-17.5 -30.5t-17 -80q-7 -44 -7.5 -62t-1.5 -26q-1 -6 -3 -7.5t-9 -4.5q-103 -28 -182 -28q-85 0 -144.5 32z" />
    <glyph glyph-name="gcircumflex" unicode="&#x11d;" horiz-adv-x="377" 
d="M172 467q-3 0 -5.5 2t-1.5 3l102 249q1 5 10 5q8 0 8 -5l14 -249q0 -2 -5.5 -2.5t-5.5 1.5l-27 166l-86 -168q0 -2 -3 -2zM387 382q0 -11 -4.5 -23t-8.5 -10q-21 9 -48 9q-9 0 -29 -2q21 -27 21 -70q0 -17 -5 -40q-9 -43 -34 -77t-59.5 -52.5t-69.5 -18.5q-13 0 -25 3
q-16 -17 -17 -36q-3 -26 20 -45t71 -43q56 -29 85 -53.5t29 -61.5q0 -36 -28 -69t-76 -53.5t-103 -20.5q-69 0 -109 29.5t-40 72.5q0 44 36.5 77.5t109.5 75.5q-36 26 -36 56q0 7 1 11q4 16 14 31t29 33q-29 11 -45 38t-16 63q0 17 5 40q12 63 59 104.5t106 41.5
q40 0 66 -23q51 24 96 24q5 0 5 -11zM271 252q0 50 -19.5 86.5t-56.5 36.5q-32 0 -59.5 -28.5t-34.5 -70.5q-4 -17 -4 -39q0 -49 20.5 -85t57.5 -36q32 0 58 26.5t35 71.5q3 18 3 38zM245 -113.5q-28 23.5 -81 51.5q-30 15 -51 29q-36 -20 -57 -34.5t-36 -36t-15 -49.5
q0 -44 41 -72.5t107 -28.5q56 0 88 23t32 59q0 35 -28 58.5z" />
    <glyph glyph-name="Gbreve" unicode="&#x11e;" horiz-adv-x="630" 
d="M387.5 691.5q-21.5 25.5 -21.5 58.5q0 6 12 11t22 5q8 0 8 -3q2 -31 18.5 -49.5t45.5 -18.5q23 0 40 15t33 49q2 3 6 3t7.5 -2t2.5 -4q-21 -45 -46.5 -67.5t-62.5 -22.5q-43 0 -64.5 25.5zM185.5 20q-59.5 32 -90.5 88.5t-31 130.5q0 33 6 69q17 95 75 169.5t142.5 116.5
t180.5 42q41 0 76.5 -10t56.5 -28q6 -6 6 -13l-1 -10l-8 -105q-1 -4 -6.5 -4t-5.5 4q-3 71 -43.5 108t-113.5 37q-117 0 -195 -73t-102 -198q-8 -46 -8 -83q0 -77 28.5 -135t80.5 -89.5t121 -31.5q46 0 72 9t42 35t24 77q8 43 8 63q0 19 -7.5 28.5t-25.5 12.5t-53 3
q-2 0 -3.5 2.5t-1.5 5.5t1.5 5.5t3.5 2.5q63 -5 104 -5q39 0 82 3q4 0 4 -7t-4 -7q-22 1 -32.5 -6.5t-17.5 -30.5t-17 -80q-7 -44 -7.5 -62t-1.5 -26q-1 -6 -3 -7.5t-9 -4.5q-103 -28 -182 -28q-85 0 -144.5 32z" />
    <glyph glyph-name="gbreve" unicode="&#x11f;" horiz-adv-x="377" 
d="M161.5 495.5q-21.5 25.5 -21.5 58.5q0 6 12 11t22 5q8 0 8 -3q2 -31 18.5 -49.5t45.5 -18.5q23 0 40 15t33 49q2 3 6 3t7.5 -2t2.5 -4q-21 -45 -46.5 -67.5t-62.5 -22.5q-43 0 -64.5 25.5zM387 382q0 -11 -4.5 -23t-8.5 -10q-21 9 -48 9q-9 0 -29 -2q21 -27 21 -70
q0 -17 -5 -40q-9 -43 -34 -77t-59.5 -52.5t-69.5 -18.5q-13 0 -25 3q-16 -17 -17 -36q-3 -26 20 -45t71 -43q56 -29 85 -53.5t29 -61.5q0 -36 -28 -69t-76 -53.5t-103 -20.5q-69 0 -109 29.5t-40 72.5q0 44 36.5 77.5t109.5 75.5q-36 26 -36 56q0 7 1 11q4 16 14 31t29 33
q-29 11 -45 38t-16 63q0 17 5 40q12 63 59 104.5t106 41.5q40 0 66 -23q51 24 96 24q5 0 5 -11zM271 252q0 50 -19.5 86.5t-56.5 36.5q-32 0 -59.5 -28.5t-34.5 -70.5q-4 -17 -4 -39q0 -49 20.5 -85t57.5 -36q32 0 58 26.5t35 71.5q3 18 3 38zM245 -113.5q-28 23.5 -81 51.5
q-30 15 -51 29q-36 -20 -57 -34.5t-36 -36t-15 -49.5q0 -44 41 -72.5t107 -28.5q56 0 88 23t32 59q0 35 -28 58.5z" />
    <glyph glyph-name="Gdotaccent" unicode="&#x120;" horiz-adv-x="630" 
d="M429 718q-11 10 -11 28t11 28t29 10q19 0 29 -10t10 -28t-10 -28t-29 -10q-18 0 -29 10zM185.5 20q-59.5 32 -90.5 88.5t-31 130.5q0 33 6 69q17 95 75 169.5t142.5 116.5t180.5 42q41 0 76.5 -10t56.5 -28q6 -6 6 -13l-1 -10l-8 -105q-1 -4 -6.5 -4t-5.5 4
q-3 71 -43.5 108t-113.5 37q-117 0 -195 -73t-102 -198q-8 -46 -8 -83q0 -77 28.5 -135t80.5 -89.5t121 -31.5q46 0 72 9t42 35t24 77q8 43 8 63q0 19 -7.5 28.5t-25.5 12.5t-53 3q-2 0 -3.5 2.5t-1.5 5.5t1.5 5.5t3.5 2.5q63 -5 104 -5q39 0 82 3q4 0 4 -7t-4 -7
q-22 1 -32.5 -6.5t-17.5 -30.5t-17 -80q-7 -44 -7.5 -62t-1.5 -26q-1 -6 -3 -7.5t-9 -4.5q-103 -28 -182 -28q-85 0 -144.5 32z" />
    <glyph glyph-name="gdotaccent" unicode="&#x121;" horiz-adv-x="377" 
d="M215.5 522q-10.5 10 -10.5 29q0 17 10.5 27t29.5 10t29 -10t10 -27q0 -19 -10 -29t-29 -10t-29.5 10zM387 382q0 -11 -4.5 -23t-8.5 -10q-21 9 -48 9q-9 0 -29 -2q21 -27 21 -70q0 -17 -5 -40q-9 -43 -34 -77t-59.5 -52.5t-69.5 -18.5q-13 0 -25 3q-16 -17 -17 -36
q-3 -26 20 -45t71 -43q56 -29 85 -53.5t29 -61.5q0 -36 -28 -69t-76 -53.5t-103 -20.5q-69 0 -109 29.5t-40 72.5q0 44 36.5 77.5t109.5 75.5q-36 26 -36 56q0 7 1 11q4 16 14 31t29 33q-29 11 -45 38t-16 63q0 17 5 40q12 63 59 104.5t106 41.5q40 0 66 -23q51 24 96 24
q5 0 5 -11zM271 252q0 50 -19.5 86.5t-56.5 36.5q-32 0 -59.5 -28.5t-34.5 -70.5q-4 -17 -4 -39q0 -49 20.5 -85t57.5 -36q32 0 58 26.5t35 71.5q3 18 3 38zM245 -113.5q-28 23.5 -81 51.5q-30 15 -51 29q-36 -20 -57 -34.5t-36 -36t-15 -49.5q0 -44 41 -72.5t107 -28.5
q56 0 88 23t32 59q0 35 -28 58.5z" />
    <glyph glyph-name="Gcommaaccent" unicode="&#x122;" horiz-adv-x="630" 
d="M234 542q-78 -73 -102 -198q-8 -46 -8 -83q0 -77 28.5 -135t80.5 -89.5t121 -31.5q46 0 72 9t42 35t24 77q8 43 8 63q0 19 -7.5 28.5t-25.5 12.5t-53 3q-2 0 -3.5 2.5t-1.5 5.5t1.5 5.5t3.5 2.5q63 -5 104 -5q39 0 82 3q4 0 4 -7t-4 -7q-22 1 -32.5 -6.5t-17.5 -30.5
t-17 -80q-7 -44 -7.5 -62t-1.5 -26q-1 -6 -3 -7.5t-9 -4.5q-103 -28 -182 -28q-85 0 -144.5 32t-90.5 88.5t-31 130.5q0 33 6 69q17 95 75 169.5t142.5 116.5t180.5 42q41 0 76.5 -10t56.5 -28q6 -6 6 -13l-1 -10l-8 -105q-1 -4 -6.5 -4t-5.5 4q-3 71 -43.5 108t-113.5 37
q-117 0 -195 -73zM361.5 -106q14.5 -16 14.5 -45q0 -67 -75 -124l-2 -1q-4 0 -6 4.5t1 6.5q46 34 52 79q1 6 1 16q0 12 -3 21q-8 -11 -27 -11q-17 0 -26.5 9.5t-9.5 25.5q0 17 11.5 26t31.5 9q23 0 37.5 -16z" />
    <glyph glyph-name="gcommaaccent" unicode="&#x123;" horiz-adv-x="377" 
d="M207.5 504q-14.5 16 -14.5 45q0 67 75 124l2 1q4 0 6 -4.5t-1 -6.5q-46 -34 -52 -79q-1 -6 -1 -16q0 -12 3 -21q8 11 27 11q17 0 26.5 -9.5t9.5 -25.5q0 -17 -11.5 -26t-31.5 -9q-23 0 -37.5 16zM387 382q0 -11 -4.5 -23t-8.5 -10q-21 9 -48 9q-9 0 -29 -2q21 -27 21 -70
q0 -17 -5 -40q-9 -43 -34 -77t-59.5 -52.5t-69.5 -18.5q-13 0 -25 3q-16 -17 -17 -36q-3 -26 20 -45t71 -43q56 -29 85 -53.5t29 -61.5q0 -36 -28 -69t-76 -53.5t-103 -20.5q-69 0 -109 29.5t-40 72.5q0 44 36.5 77.5t109.5 75.5q-36 26 -36 56q0 7 1 11q4 16 14 31t29 33
q-29 11 -45 38t-16 63q0 17 5 40q12 63 59 104.5t106 41.5q40 0 66 -23q51 24 96 24q5 0 5 -11zM271 252q0 50 -19.5 86.5t-56.5 36.5q-32 0 -59.5 -28.5t-34.5 -70.5q-4 -17 -4 -39q0 -49 20.5 -85t57.5 -36q32 0 58 26.5t35 71.5q3 18 3 38zM245 -113.5q-28 23.5 -81 51.5
q-30 15 -51 29q-36 -20 -57 -34.5t-36 -36t-15 -49.5q0 -44 41 -72.5t107 -28.5q56 0 88 23t32 59q0 35 -28 58.5z" />
    <glyph glyph-name="Hcircumflex" unicode="&#x124;" horiz-adv-x="670" 
d="M329 660q-3 0 -5 2.5t0 4.5l105 92q5 5 9 5q6 0 9 -5l72 -92v-1q0 -3 -2.5 -5.5t-4.5 -0.5l-83 62l-99 -62h-1zM702 619q0 -6 -3 -6q-33 0 -49 -5.5t-24.5 -19.5t-13.5 -44l-82 -463q-3 -18 -3 -31q0 -23 14.5 -30.5t52.5 -7.5q3 0 3 -6t-3 -6q-26 0 -41 1l-57 1l-59 -1
q-15 -1 -42 -1q-2 0 -2 6t2 6q34 0 50.5 5t24.5 19t13 45l41 235h-336l-42 -235q-4 -26 -4 -32q0 -22 14.5 -29.5t52.5 -7.5q3 0 3 -6t-3 -6q-26 0 -41 1l-60 1l-58 -1q-14 -1 -39 -1q-3 0 -3 6t3 6q33 0 49.5 5t25 19.5t13.5 44.5l82 463q3 18 3 31q0 23 -14 30.5t-52 7.5
q-2 0 -2 6t2 6l40 -1q36 -2 57 -2q22 0 60 2l41 1q2 0 2 -6t-2 -6q-33 0 -49.5 -6t-24.5 -20.5t-14 -44.5l-37 -207h337l36 207q4 26 4 33q0 22 -14 30t-52 8q-3 0 -3 6t3 6l40 -1q36 -2 58 -2t58 2l41 1q3 0 3 -6z" />
    <glyph glyph-name="hcircumflex" unicode="&#x125;" horiz-adv-x="443" 
d="M112 700q-3 3 -1 5l105 92q5 5 9 5q6 0 9 -5l72 -92v-1q0 -3 -2.5 -5.5t-4.5 -0.5l-83 62l-99 -62q-2 -1 -5 2zM424 79q3 0 5 -3.5t-1 -6.5q-35 -40 -61.5 -59t-50.5 -19q-17 0 -24 9.5t-7 32.5q0 20 6 56l29 159q6 33 6 57q0 60 -45 60q-34 0 -70.5 -43t-69 -124.5
t-52.5 -191.5q-1 -6 -8 -10t-18 -4q-21 0 -21 6l4 21q2 7 5.5 24t5.5 31l104 553q2 14 2 18q0 25 -22 25q-19 0 -51 -16h-2q-4 0 -5 4.5t2 6.5l123 60h2q4 0 7 -3t2 -5l-100 -547q37 107 86.5 168t103.5 61q32 0 47.5 -17.5t15.5 -55.5q0 -24 -6 -59l-33 -178q-3 -16 -3 -28
q0 -33 20 -33q23 0 70 49q2 2 4 2z" />
    <glyph glyph-name="Hbar" unicode="&#x126;" horiz-adv-x="670" 
d="M702 619q0 -6 -3 -6q-33 0 -49 -5.5t-24.5 -19.5t-13.5 -44l-82 -463q-4 -26 -4 -31q0 -23 14.5 -30.5t53.5 -7.5q3 0 3 -6t-3 -6q-26 0 -41 1l-57 1l-59 -1q-15 -1 -42 -1q-2 0 -2 6t2 6q34 0 50.5 5t24.5 19t13 45l25 141h-337l-25 -141q-4 -26 -4 -32
q0 -22 14.5 -29.5t52.5 -7.5q3 0 3 -6t-3 -6q-26 0 -41 1l-60 1l-58 -1q-14 -1 -39 -1q-3 0 -3 6t3 6q33 0 49.5 5t25 19.5t13.5 44.5l82 463q4 26 4 32q0 22 -14.5 29.5t-52.5 7.5q-2 0 -2 6t2 6l40 -1q36 -2 57 -2q22 0 60 2l41 1q2 0 2 -6t-2 -6q-33 0 -49.5 -6
t-24.5 -20.5t-14 -44.5l-20 -114h336l20 114q4 26 4 33q0 22 -14 30t-52 8q-3 0 -3 6t3 6l40 -1q36 -2 58 -2t58 2l41 1q3 0 3 -6zM174 241h337l30 168h-337z" />
    <glyph glyph-name="hbar" unicode="&#x127;" horiz-adv-x="443" 
d="M424 79q3 0 5 -3.5t-1 -6.5q-35 -40 -61.5 -59t-50.5 -19q-17 0 -24 9.5t-7 32.5q0 20 6 56l29 159q6 33 6 57q0 60 -45 60q-34 0 -70.5 -43t-69 -124.5t-52.5 -191.5q-1 -6 -8 -10t-18 -4q-21 0 -21 6l4 21q2 7 5.5 24t5.5 31l80 427h-64q-4 0 -4 9t4 9h68l20 108
q2 14 2 18q0 25 -22 25q-19 0 -51 -16h-2q-4 0 -5 4.5t2 6.5l123 60h2q4 0 7 -3t2 -5l-36 -198h176q5 0 5 -9q0 -3 -1.5 -6t-3.5 -3h-179l-61 -331q37 107 86.5 168t103.5 61q32 0 47.5 -17.5t15.5 -55.5q0 -24 -6 -59l-33 -178q-3 -16 -3 -28q0 -33 20 -33q23 0 70 49
q2 2 4 2z" />
    <glyph glyph-name="Itilde" unicode="&#x128;" horiz-adv-x="301" 
d="M116 698q-3 0 -5 2.5t0 4.5q16 22 38.5 39.5t45.5 17.5q14 0 31.5 -4.5t20.5 -5.5q44 -14 74 -14q17 0 27.5 7t21.5 20h1q3 0 5.5 -2.5t0.5 -4.5q-26 -34 -43 -46t-35 -12q-15 0 -31 3.5t-32 8.5t-34 9t-35 4q-16 0 -24.5 -5.5t-15 -12l-9.5 -9.5h-2zM16 6q0 6 3 6
q33 0 49.5 5t24.5 19.5t13 44.5l82 463q4 24 4 31q0 23 -14.5 30.5t-53.5 7.5q-3 0 -3 6t3 6l41 -1q36 -2 57 -2q27 0 63 2l39 1q2 0 2 -6t-2 -6q-33 0 -49.5 -6t-24.5 -20.5t-14 -44.5l-82 -461q-3 -19 -3 -31q0 -23 14 -30.5t54 -7.5q2 0 2 -6t-2 -6q-25 0 -40 1l-61 1
l-57 -1q-15 -1 -42 -1q-3 0 -3 6z" />
    <glyph glyph-name="itilde" unicode="&#x129;" horiz-adv-x="247" 
d="M58 482q-2 0 -4.5 2.5t-1.5 4.5q16 22 38.5 39.5t45.5 17.5q9 0 33 -10q28 -14 47 -14q17 0 26.5 6.5t22.5 20.5h1q3 0 5 -2.5t1 -4.5q-27 -34 -43.5 -46t-35.5 -12q-9 0 -19 3.5t-20 8.5q-2 1 -16 7t-30 6t-24.5 -5.5t-15 -12l-9.5 -9.5h-1zM85 0.5q-8 9.5 -8 33.5
q0 23 7 55l41 208q3 17 3 28q0 16 -5.5 24.5t-14.5 8.5q-12 0 -31.5 -12t-40.5 -35q-1 -1 -3 -1q-3 0 -5.5 3.5t0.5 5.5q34 39 62 57.5t52 18.5q17 0 24.5 -9.5t7.5 -31.5q0 -23 -7 -57l-40 -208q-3 -16 -3 -29q0 -32 20 -32q12 0 31 12.5t40 34.5q1 1 3 1q4 0 6 -3.5
t-1 -5.5q-66 -76 -113 -76q-17 0 -25 9.5z" />
    <glyph glyph-name="Imacron" unicode="&#x12a;" horiz-adv-x="301" 
d="M123.5 723q-1.5 4 -1.5 9q0 13 5 13h240q5 0 5 -13t-5 -13h-240q-2 0 -3.5 4zM16 6q0 6 3 6q33 0 49.5 5t24.5 19.5t13 44.5l82 463q4 24 4 31q0 23 -14.5 30.5t-53.5 7.5q-3 0 -3 6t3 6l41 -1q36 -2 57 -2q27 0 63 2l39 1q2 0 2 -6t-2 -6q-33 0 -49.5 -6t-24.5 -20.5
t-14 -44.5l-82 -461q-3 -19 -3 -31q0 -23 14 -30.5t54 -7.5q2 0 2 -6t-2 -6q-25 0 -40 1l-61 1l-57 -1q-15 -1 -42 -1q-3 0 -3 6z" />
    <glyph glyph-name="imacron" unicode="&#x12b;" horiz-adv-x="247" 
d="M40.5 484q-1.5 4 -1.5 9q0 13 5 13h240q5 0 5 -13t-5 -13h-240q-2 0 -3.5 4zM85 0.5q-8 9.5 -8 33.5q0 23 7 55l41 208q3 17 3 28q0 16 -5.5 24.5t-14.5 8.5q-12 0 -31.5 -12t-40.5 -35q-1 -1 -3 -1q-3 0 -5.5 3.5t0.5 5.5q34 39 62 57.5t52 18.5q17 0 24.5 -9.5
t7.5 -31.5q0 -23 -7 -57l-40 -208q-3 -16 -3 -29q0 -32 20 -32q12 0 31 12.5t40 34.5q1 1 3 1q4 0 6 -3.5t-1 -5.5q-66 -76 -113 -76q-17 0 -25 9.5z" />
    <glyph glyph-name="Ibreve" unicode="&#x12c;" horiz-adv-x="301" 
d="M173.5 691.5q-21.5 25.5 -21.5 58.5q0 6 12 11t22 5q8 0 8 -3q2 -31 18.5 -49.5t45.5 -18.5q23 0 40 15t33 49q2 3 6 3t7.5 -2t2.5 -4q-21 -45 -46.5 -67.5t-62.5 -22.5q-43 0 -64.5 25.5zM16 6q0 6 3 6q33 0 49.5 5t24.5 19.5t13 44.5l82 463q4 24 4 31q0 23 -14.5 30.5
t-53.5 7.5q-3 0 -3 6t3 6l41 -1q36 -2 57 -2q27 0 63 2l39 1q2 0 2 -6t-2 -6q-33 0 -49.5 -6t-24.5 -20.5t-14 -44.5l-82 -461q-3 -19 -3 -31q0 -23 14 -30.5t54 -7.5q2 0 2 -6t-2 -6q-25 0 -40 1l-61 1l-57 -1q-15 -1 -42 -1q-3 0 -3 6z" />
    <glyph glyph-name="ibreve" unicode="&#x12d;" horiz-adv-x="247" 
d="M88.5 500.5q-21.5 25.5 -21.5 58.5q0 6 12 11t22 5q8 0 8 -3q2 -31 18.5 -49.5t45.5 -18.5q23 0 40 15t33 49q2 3 6 3t7.5 -2t2.5 -4q-21 -45 -46.5 -67.5t-62.5 -22.5q-43 0 -64.5 25.5zM85 0.5q-8 9.5 -8 33.5q0 23 7 55l41 208q3 17 3 28q0 16 -5.5 24.5t-14.5 8.5
q-12 0 -31.5 -12t-40.5 -35q-1 -1 -3 -1q-3 0 -5.5 3.5t0.5 5.5q34 39 62 57.5t52 18.5q17 0 24.5 -9.5t7.5 -31.5q0 -23 -7 -57l-40 -208q-3 -16 -3 -29q0 -32 20 -32q12 0 31 12.5t40 34.5q1 1 3 1q4 0 6 -3.5t-1 -5.5q-66 -76 -113 -76q-17 0 -25 9.5z" />
    <glyph glyph-name="Iogonek" unicode="&#x12e;" horiz-adv-x="301" 
d="M326 619q0 -6 -2 -6q-33 0 -49.5 -6t-24.5 -20.5t-14 -44.5l-82 -461q-3 -19 -3 -31q0 -23 14 -30.5t54 -7.5q2 0 2 -6t-2 -6q-24 0 -38 1l-56 1q-62 -69 -76 -152q-3 -17 -3 -32q0 -32 13 -49t37 -17q17 0 29 6.5t27 19.5h2q3 0 6 -3t0 -5q-26 -24 -46 -34.5t-42 -10.5
q-31 0 -49 19t-18 52q0 88 106 206l-54 -1q-14 -1 -38 -1q-3 0 -3 6t3 6q33 0 49.5 5t24.5 19.5t13 44.5l82 463q4 24 4 31q0 23 -14.5 30.5t-53.5 7.5q-3 0 -3 6t3 6l41 -1q36 -2 57 -2q27 0 63 2l39 1q2 0 2 -6z" />
    <glyph glyph-name="iogonek" unicode="&#x12f;" horiz-adv-x="247" 
d="M142.5 527q-10.5 10 -10.5 29q0 17 10.5 27t29.5 10q18 0 28.5 -10t10.5 -27q0 -19 -10.5 -29t-28.5 -10q-19 0 -29.5 10zM218 78q3 0 5 -3.5t0 -5.5q-32 -33 -57 -56q-43 -42 -67 -68.5t-40 -58t-16 -65.5q0 -31 16.5 -50t48.5 -19q16 0 27 5t23 14h1q3 0 5.5 -3.5
t0.5 -6.5q-50 -36 -88 -36q-35 0 -55 21t-20 53q0 43 32.5 90.5t92.5 103.5q-10 -2 -16 -2q-17 0 -24.5 10t-7.5 34q0 21 6 54l39 208q3 17 3 27q0 34 -21 34q-12 0 -31 -12.5t-40 -34.5q-1 -1 -3 -1q-4 0 -6 3.5t1 5.5q66 76 115 76q16 0 23 -9.5t7 -31.5q0 -21 -6 -57
l-37 -208q-3 -16 -3 -28q0 -33 20 -33q22 0 69 49q1 1 3 1z" />
    <glyph glyph-name="Idotaccent" unicode="&#x130;" horiz-adv-x="301" 
d="M209 718q-11 10 -11 28t11 28t29 10q19 0 29 -10t10 -28t-10 -28t-29 -10q-18 0 -29 10zM16 6q0 6 3 6q33 0 49.5 5t24.5 19.5t13 44.5l82 463q4 24 4 31q0 23 -14.5 30.5t-53.5 7.5q-3 0 -3 6t3 6l41 -1q36 -2 57 -2q27 0 63 2l39 1q2 0 2 -6t-2 -6q-33 0 -49.5 -6
t-24.5 -20.5t-14 -44.5l-82 -461q-3 -19 -3 -31q0 -23 14 -30.5t54 -7.5q2 0 2 -6t-2 -6q-25 0 -40 1l-61 1l-57 -1q-15 -1 -42 -1q-3 0 -3 6z" />
    <glyph glyph-name="dotlessi" unicode="&#x131;" horiz-adv-x="247" 
d="M85 0.5q-8 9.5 -8 33.5q0 23 7 55l41 208q3 17 3 28q0 16 -5.5 24.5t-14.5 8.5q-12 0 -31.5 -12t-40.5 -35q-1 -1 -3 -1q-3 0 -5.5 3.5t0.5 5.5q34 39 62 57.5t52 18.5q17 0 24.5 -9.5t7.5 -31.5q0 -23 -7 -57l-40 -208q-3 -16 -3 -29q0 -32 20 -32q12 0 31 12.5t40 34.5
q1 1 3 1q4 0 6 -3.5t-1 -5.5q-66 -76 -113 -76q-17 0 -25 9.5z" />
    <glyph glyph-name="IJ" unicode="&#x132;" horiz-adv-x="619" 
d="M51 275q0 6 4 6q35 0 52 5t25.5 19.5t13.5 44.5l34 194q4 26 4 31q0 23 -15 30.5t-56 7.5q-4 0 -4 6t4 6l46 -1q38 -2 60 -2q26 0 64 2l41 1q5 0 5 -6t-5 -6q-35 0 -52.5 -6t-26 -20.5t-13.5 -44.5l-34 -192q-4 -19 -4 -34q0 -21 14.5 -28t55.5 -7q4 0 4 -6t-4 -6
q-27 0 -42 1l-63 1l-60 -1q-16 -1 -44 -1q-4 0 -4 6zM186.5 7q-41.5 20 -63.5 51.5t-22 64.5q0 9 1 13q1 14 9.5 22.5t19.5 8.5q19 0 24.5 -13t7.5 -43q2 -46 25 -78t90 -32q155 0 190 199l61 344q3 18 3 30q0 23 -16.5 31t-64.5 8q-3 0 -3 6t3 6l51 -1q42 -2 64 -2t58 2
l38 1q4 0 4 -6t-4 -6q-31 0 -46.5 -6t-23.5 -20.5t-13 -44.5l-49 -284q-23 -129 -90 -200t-157 -71q-55 0 -96.5 20z" />
    <glyph glyph-name="ij" unicode="&#x133;" horiz-adv-x="449" 
d="M128.5 527q-10.5 10 -10.5 29q0 17 10.5 27t29.5 10t29 -10t10 -27q0 -19 -10 -29t-29 -10t-29.5 10zM327.5 527q-10.5 10 -10.5 29q0 17 10.5 27t29.5 10t29 -10t10 -27q0 -19 -10 -29t-29 -10t-29.5 10zM400 388l-4 -21q-2 -7 -5.5 -24t-5.5 -31l-70 -382
q-18 -95 -70.5 -153t-129.5 -58q-42 0 -68.5 19t-26.5 48q0 19 8.5 27.5t20.5 8.5q9 0 13.5 -6t11.5 -21q12 -25 28 -40t52 -15q39 0 69.5 36.5t46.5 129.5l55 314q-37 -109 -87 -171t-105 -62q-33 0 -49 17t-16 54q0 23 8 61l36 178q3 17 3 28q0 16 -5.5 24.5t-14.5 8.5
q-22 0 -69 -49q-2 -2 -4 -2q-3 0 -5 3.5t1 6.5q35 40 61.5 59t50.5 19q16 0 24 -9.5t8 -31.5q0 -19 -8 -57l-32 -159q-7 -32 -7 -58q0 -59 46 -59q34 0 70.5 43t69 124.5t52.5 191.5q1 6 8 10t18 4q21 0 21 -6z" />
    <glyph glyph-name="Jcircumflex" unicode="&#x134;" horiz-adv-x="271" 
d="M129 660q-3 0 -5 2.5t0 4.5l105 92q5 5 9 5q6 0 9 -5l72 -92v-1q0 -3 -2.5 -5.5t-4.5 -0.5l-83 62l-99 -62h-1zM-20 -193q-2 0 -4.5 4.5t-0.5 6.5q45 27 71.5 81.5t42.5 140.5l89 504q3 18 3 30q0 23 -14.5 31t-53.5 8q-2 0 -2 6t2 6l41 -1q36 -2 58 -2q27 0 63 2l38 1
q3 0 3 -6t-3 -6q-33 0 -49.5 -6t-24.5 -20.5t-13 -44.5l-84 -475q-15 -79 -34 -127t-48.5 -78.5t-78.5 -54.5h-1z" />
    <glyph glyph-name="jcircumflex" unicode="&#x135;" horiz-adv-x="237" 
d="M223 478q0 -3 -6 -3.5t-6 2.5l-26 166l-86 -169q0 -1 -3 -1t-5.5 1.5t-1.5 3.5l101 249q3 5 11 5t8 -5zM-64 -264.5q-14 10.5 -14 25.5t9 23.5t21 8.5q10 0 14.5 -7t8.5 -20q5 -14 9.5 -20.5t13.5 -6.5q23 0 38 43t34 154l62 361q3 17 3 28q0 33 -20 33q-12 0 -31 -12
t-41 -35q-1 -1 -3 -1q-3 0 -5.5 3.5t0.5 5.5q34 39 62 57.5t53 18.5q16 0 23 -9.5t7 -31.5q0 -21 -6 -57l-58 -339q-16 -94 -33 -143t-41.5 -69.5t-64.5 -20.5q-27 0 -41 10.5z" />
    <glyph glyph-name="Kcommaaccent" unicode="&#x136;" horiz-adv-x="587" 
d="M612 619q0 -6 -3 -6q-35 0 -74.5 -15.5t-78.5 -53.5l-193 -169l101 -176q52 -90 80.5 -129t47 -48.5t48.5 -9.5q3 0 3 -6t-3 -6h-83q-31 0 -39.5 4.5t-43.5 69.5t-39 71l-112 195l-37 -31l-40 -228q-6 -36 -6 -42q0 -16 12 -21.5t46 -5.5q2 0 2 -6t-2 -6q-24 0 -37 1
l-53 1l-58 -1q-14 -1 -39 -1q-3 0 -3 6t3 6q33 0 49.5 5t25 19.5t13.5 44.5l82 463q3 18 3 31q0 23 -14 30.5t-52 7.5q-2 0 -2 6t2 6l40 -1q36 -2 57 -2q22 0 60 2l41 1q2 0 2 -6t-2 -6q-33 0 -49.5 -6t-24.5 -20.5t-14 -44.5l-38 -212l247 220q38 36 38 49q0 8 -11.5 11
t-35.5 3q-2 0 -2 6t2 6l35 -1q32 -2 60 -2q26 0 56 2l30 1q3 0 3 -6zM307.5 -106q14.5 -16 14.5 -45q0 -67 -75 -124l-2 -1q-4 0 -6 4.5t1 6.5q46 34 52 79q1 6 1 16q0 12 -3 21q-8 -11 -27 -11q-17 0 -26.5 9.5t-9.5 25.5q0 17 11.5 26t31.5 9q23 0 37.5 -16z" />
    <glyph glyph-name="kcommaaccent" unicode="&#x137;" horiz-adv-x="418" 
d="M405 76q4 0 6 -3.5t0 -5.5q-67 -76 -106 -76q-22 0 -38.5 14.5t-38.5 52.5l-58 102q-9 15 -16.5 21.5t-18.5 6.5q-3 0 -13 -2l-33 -180q-1 -6 -8 -10t-18 -4q-21 0 -21 6l4 21q2 7 5.5 24t5.5 31l104 553q2 14 2 18q0 25 -22 25q-19 0 -51 -16h-2q-4 0 -5 4.5t2 6.5
l123 60h2q4 0 7 -3t2 -5l-76 -416q37 45 84 71.5t96 26.5q28 0 40 -14.5t12 -33.5q0 -9 -1 -12q-7 -35 -53 -69t-122 -61l68 -119q20 -35 34.5 -47.5t30.5 -12.5q28 0 70 45q1 1 3 1zM187 327.5q-43 -44.5 -61 -119.5l-2 -9q96 23 137.5 49.5t51.5 75.5q2 10 2 15
q0 15 -8.5 24t-22.5 9q-54 0 -97 -44.5zM190.5 -106q14.5 -16 14.5 -45q0 -67 -75 -124l-2 -1q-4 0 -6 4.5t1 6.5q46 34 52 79q1 6 1 16q0 12 -3 21q-8 -11 -27 -11q-17 0 -26.5 9.5t-9.5 25.5q0 17 11.5 26t31.5 9q23 0 37.5 -16z" />
    <glyph glyph-name="kgreenlandic" unicode="&#x138;" horiz-adv-x="436" 
d="M424 76q4 0 6 -3.5t-1 -5.5q-66 -76 -105 -76q-22 0 -38.5 14.5t-38.5 52.5l-59 102q-8 15 -15.5 21.5t-18.5 6.5q-3 0 -13 -2l-33 -180q-2 -6 -8.5 -10t-17.5 -4q-13 0 -17 1.5t-4 4.5q1 5 3 16t5 26l7 34l42 223q3 17 3 28q0 16 -5.5 24.5t-14.5 8.5q-12 0 -31.5 -12
t-40.5 -35q-1 -1 -3 -1q-3 0 -5.5 3.5t0.5 5.5q66 76 115 76q16 0 23 -9.5t7 -31.5q0 -20 -6 -55q38 46 85.5 73t96.5 27q28 0 40 -14.5t12 -33.5q0 -9 -1 -12q-7 -35 -53 -69t-122 -61l67 -119q20 -35 35 -47.5t31 -12.5q13 0 31 11.5t39 33.5q1 1 3 1zM205.5 327.5
q-43.5 -44.5 -60.5 -119.5l-2 -9q96 23 137.5 49.5t51.5 75.5q2 10 2 15q0 15 -8.5 24t-22.5 9q-54 0 -97.5 -44.5z" />
    <glyph glyph-name="Lacute" unicode="&#x139;" horiz-adv-x="494" 
d="M164 678q-4 0 -5 4.5t2 6.5q46 21 122 65l50 28q4 2 20.5 -4t29 -13.5t5.5 -8.5q-62 -15 -113.5 -33.5t-108.5 -43.5zM9 6q0 6 3 6q33 0 49.5 5t24.5 19.5t13 44.5l82 463q3 18 3 31q0 23 -14 30.5t-52 7.5q-2 0 -2 6t2 6l40 -1q36 -2 57 -2q22 0 60 2l41 1q2 0 2 -6
t-2 -6q-33 0 -49.5 -5.5t-24.5 -20t-14 -44.5l-81 -458q-3 -18 -3 -30q0 -22 13.5 -29.5t51.5 -7.5h120q51 0 82.5 34t49.5 95q0 2 4 2q3 0 6 -1.5t2 -2.5q-19 -61 -31 -130q-2 -8 -5.5 -11.5t-10.5 -3.5h-414q-3 0 -3 6z" />
    <glyph glyph-name="lacute" unicode="&#x13a;" horiz-adv-x="235" 
d="M114 715q-4 0 -5 4.5t2 6.5q46 21 122 65l50 28q4 2 20.5 -4t29 -13.5t5.5 -8.5q-62 -15 -113.5 -33.5t-108.5 -43.5zM65 1q-8 10 -8 33q0 15 7 55l101 538q2 14 2 18q0 25 -21 25q-18 0 -50 -16h-2q-4 0 -5.5 5t2.5 6l123 60h2q4 0 7 -3t2 -5l-117 -628q-4 -22 -4 -29
q0 -15 6 -23.5t15 -8.5q22 0 69 49q2 2 4 2q3 0 5 -3.5t-1 -6.5q-35 -40 -61.5 -59t-50.5 -19q-17 0 -25 10z" />
    <glyph glyph-name="Lcommaaccent" unicode="&#x13b;" horiz-adv-x="494" 
d="M465 149q3 0 6 -1.5t2 -2.5q-19 -61 -31 -130q-2 -8 -5.5 -11.5t-10.5 -3.5h-414q-3 0 -3 6t3 6q33 0 49.5 5t24.5 19.5t13 44.5l82 463q3 18 3 31q0 23 -14 30.5t-52 7.5q-2 0 -2 6t2 6l40 -1q36 -2 57 -2q22 0 60 2l41 1q2 0 2 -6t-2 -6q-33 0 -49.5 -5.5t-24.5 -20
t-14 -44.5l-81 -458q-3 -18 -3 -30q0 -22 13.5 -29.5t51.5 -7.5h120q51 0 82.5 34t49.5 95q0 2 4 2zM264.5 -106q14.5 -16 14.5 -45q0 -67 -75 -124l-2 -1q-4 0 -6 4.5t1 6.5q46 34 52 79q1 6 1 16q0 12 -3 21q-8 -11 -27 -11q-17 0 -26.5 9.5t-9.5 25.5q0 17 11.5 26
t31.5 9q23 0 37.5 -16z" />
    <glyph glyph-name="lcommaaccent" unicode="&#x13c;" horiz-adv-x="235" 
d="M108 89q-4 -22 -4 -29q0 -15 6 -23.5t15 -8.5q22 0 69 49q2 2 4 2q3 0 5 -3.5t-1 -6.5q-35 -40 -61.5 -59t-50.5 -19q-17 0 -25 10t-8 33q0 15 7 55l101 538q2 14 2 18q0 25 -21 25q-18 0 -50 -16h-2q-4 0 -5.5 5t2.5 6l123 60h2q4 0 7 -3t2 -5zM109.5 -106
q14.5 -16 14.5 -45q0 -67 -75 -124l-2 -1q-4 0 -6 4.5t1 6.5q46 34 52 79q1 6 1 16q0 12 -3 21q-8 -11 -27 -11q-17 0 -26.5 9.5t-9.5 25.5q0 17 11.5 26t31.5 9q23 0 37.5 -16z" />
    <glyph glyph-name="Lcaron" unicode="&#x13d;" horiz-adv-x="494" 
d="M438 625q1 5 11 -0.5t19.5 -14.5t8.5 -13l-69 -244q-1 -2 -6 -2t-5 2zM9 6q0 6 3 6q33 0 49.5 5t24.5 19.5t13 44.5l82 463q3 18 3 31q0 23 -14 30.5t-52 7.5q-2 0 -2 6t2 6l40 -1q36 -2 57 -2q22 0 60 2l41 1q2 0 2 -6t-2 -6q-33 0 -49.5 -5.5t-24.5 -20t-14 -44.5
l-81 -458q-3 -18 -3 -30q0 -22 13.5 -29.5t51.5 -7.5h120q51 0 82.5 34t49.5 95q0 2 4 2q3 0 6 -1.5t2 -2.5q-19 -61 -31 -130q-2 -8 -5.5 -11.5t-10.5 -3.5h-414q-3 0 -3 6z" />
    <glyph glyph-name="lcaron" unicode="&#x13e;" horiz-adv-x="235" 
d="M300 724q1 5 11 -0.5t19.5 -14.5t8.5 -13l-69 -244q-1 -2 -6 -2t-5 2zM65 1q-8 10 -8 33q0 15 7 55l101 538q2 14 2 18q0 25 -21 25q-18 0 -50 -16h-2q-4 0 -5.5 5t2.5 6l123 60h2q4 0 7 -3t2 -5l-117 -628q-4 -22 -4 -29q0 -15 6 -23.5t15 -8.5q22 0 69 49q2 2 4 2
q3 0 5 -3.5t-1 -6.5q-35 -40 -61.5 -59t-50.5 -19q-17 0 -25 10z" />
    <glyph glyph-name="Ldot" unicode="&#x13f;" horiz-adv-x="494" 
d="M9 6q0 6 3 6q33 0 49.5 5t24.5 19.5t13 44.5l82 463q3 18 3 31q0 23 -14 30.5t-52 7.5q-2 0 -2 6t2 6l40 -1q36 -2 57 -2q22 0 60 2l41 1q2 0 2 -6t-2 -6q-33 0 -49.5 -5.5t-24.5 -20t-14 -44.5l-81 -458q-3 -18 -3 -30q0 -22 13.5 -29.5t51.5 -7.5h120q51 0 82.5 34
t49.5 95q0 2 4 2q3 0 6 -1.5t2 -2.5q-19 -61 -31 -130q-2 -8 -5.5 -11.5t-10.5 -3.5h-414q-3 0 -3 6zM392.5 297.5q-10.5 10.5 -10.5 28.5q0 17 10.5 27t28.5 10q19 0 29 -10t10 -27q0 -18 -10 -28.5t-29 -10.5q-18 0 -28.5 10.5z" />
    <glyph glyph-name="ldot" unicode="&#x140;" horiz-adv-x="235" 
d="M65 1q-8 10 -8 33q0 15 7 55l101 538q2 14 2 18q0 25 -21 25q-18 0 -50 -16h-2q-4 0 -5.5 5t2.5 6l123 60h2q4 0 7 -3t2 -5l-117 -628q-4 -22 -4 -29q0 -15 6 -23.5t15 -8.5q22 0 69 49q2 2 4 2q3 0 5 -3.5t-1 -6.5q-35 -40 -61.5 -59t-50.5 -19q-17 0 -25 10zM225.5 325
q-10.5 10 -10.5 28t10.5 28t29.5 10t29 -10t10 -28t-10 -28t-29 -10t-29.5 10z" />
    <glyph glyph-name="Lslash" unicode="&#x141;" horiz-adv-x="494" 
d="M465 149q3 0 6 -1.5t2 -2.5q-19 -61 -31 -130q-2 -8 -5.5 -11.5t-10.5 -3.5h-414q-3 0 -3 6t3 6q33 0 49.5 5t24.5 19.5t13 44.5l34 193l-59 -34h-1q-4 0 -8 7.5t-1 8.5l73 42l44 246q3 18 3 31q0 23 -14 30.5t-52 7.5q-2 0 -2 6t2 6l40 -1q36 -2 57 -2q22 0 60 2l41 1
q2 0 2 -6t-2 -6q-33 0 -49.5 -5.5t-24.5 -20t-14 -44.5l-38 -214l93 53h1q4 0 8 -7.5t0 -8.5l-106 -61l-39 -220q-3 -18 -3 -30q0 -22 13.5 -29.5t51.5 -7.5h120q51 0 82.5 34t49.5 95q0 2 4 2z" />
    <glyph glyph-name="lslash" unicode="&#x142;" horiz-adv-x="247" 
d="M224 406q4 0 8 -7.5t1 -9.5l-72 -41l-48 -259q-4 -22 -4 -29q0 -15 6 -23.5t15 -8.5q22 0 69 49q2 2 4 2q3 0 5 -3.5t-1 -6.5q-35 -40 -61.5 -59t-50.5 -19q-17 0 -25 10t-8 33q0 15 7 55l43 231l-57 -33h-1q-4 0 -8 7.5t0 8.5l71 41l53 283q2 14 2 18q0 25 -21 25
q-18 0 -50 -16h-2q-4 0 -5.5 5t2.5 6l123 60h2q4 0 7 -3t2 -5l-64 -344l57 33h1z" />
    <glyph glyph-name="Nacute" unicode="&#x143;" horiz-adv-x="650" 
d="M337 678q-4 0 -5 4.5t2 6.5q46 21 122 65l50 28q4 2 20.5 -4t29 -13.5t5.5 -8.5q-62 -15 -113.5 -33.5t-108.5 -43.5zM683 619q0 -6 -2 -6q-36 0 -55.5 -21t-27.5 -72l-94 -531q-1 -3 -5.5 -3.5t-6.5 3.5l-285 554l-11 20l-79 -459q-4 -23 -4 -42q0 -27 12 -38.5
t39 -11.5q2 0 2 -6t-2 -6q-20 0 -30 1l-44 1l-41 -1q-12 -1 -34 -1q-2 0 -2 6t2 6q36 0 55.5 21t27.5 71l84 478q-25 31 -58 31q-3 0 -3 6t3 6l32 -1q10 -1 28 -1q14 0 23.5 1t14.5 1q6 0 9 -4t7 -15q1 -3 4.5 -13t8.5 -20l251 -493l77 440q4 23 4 42q0 28 -12 39.5
t-39 11.5q-2 0 -2 6t2 6l30 -1q26 -2 44 -2q15 0 41 2l34 1q2 0 2 -6z" />
    <glyph glyph-name="nacute" unicode="&#x144;" horiz-adv-x="463" 
d="M260.5 472q-5.5 2 -3.5 4l98 240q2 4 16.5 8.5t27 6t10.5 -3.5l-142 -254q-1 -3 -6.5 -1zM443 79q3 0 5.5 -3.5t-0.5 -6.5q-35 -40 -61.5 -59t-50.5 -19q-17 0 -24 9.5t-7 32.5q0 20 6 56l29 159q7 31 7 57q0 60 -46 60q-34 0 -70.5 -43t-69 -124.5t-52.5 -191.5
q-1 -6 -8 -10t-18 -4q-13 0 -17 1.5t-4 4.5l4 21q2 7 5.5 24t5.5 31l41 223q3 17 3 28q0 33 -20 33q-12 0 -31.5 -12t-40.5 -35q-1 -1 -3 -1q-3 0 -5.5 3.5t0.5 5.5q66 76 115 76q16 0 23 -9.5t7 -31.5q0 -21 -6 -57l-23 -133q36 110 86.5 172.5t105.5 62.5q33 0 48.5 -17.5
t15.5 -54.5q0 -20 -7 -60l-33 -178q-3 -16 -3 -27q0 -34 21 -34q22 0 69 49q2 2 3 2z" />
    <glyph glyph-name="Ncommaaccent" unicode="&#x145;" horiz-adv-x="650" 
d="M683 619q0 -6 -2 -6q-36 0 -55.5 -21t-27.5 -72l-94 -531q-1 -3 -5.5 -3.5t-6.5 3.5l-285 554l-11 20l-79 -459q-4 -23 -4 -42q0 -27 12 -38.5t39 -11.5q2 0 2 -6t-2 -6q-20 0 -30 1l-44 1l-41 -1q-12 -1 -34 -1q-2 0 -2 6t2 6q36 0 55.5 21t27.5 71l84 478
q-25 31 -58 31q-3 0 -3 6t3 6l32 -1q10 -1 28 -1q14 0 23.5 1t14.5 1q6 0 9 -4t7 -15q1 -3 4.5 -13t8.5 -20l251 -493l77 440q4 23 4 42q0 28 -12 39.5t-39 11.5q-2 0 -2 6t2 6l30 -1q26 -2 44 -2q15 0 41 2l34 1q2 0 2 -6zM326.5 -106q14.5 -16 14.5 -45q0 -67 -75 -124
l-2 -1q-4 0 -6 4.5t1 6.5q46 34 52 79q1 6 1 16q0 12 -3 21q-8 -11 -27 -11q-17 0 -26.5 9.5t-9.5 25.5q0 17 11.5 26t31.5 9q23 0 37.5 -16z" />
    <glyph glyph-name="ncommaaccent" unicode="&#x146;" horiz-adv-x="463" 
d="M443 79q3 0 5.5 -3.5t-0.5 -6.5q-35 -40 -61.5 -59t-50.5 -19q-17 0 -24 9.5t-7 32.5q0 20 6 56l29 159q7 31 7 57q0 60 -46 60q-34 0 -70.5 -43t-69 -124.5t-52.5 -191.5q-1 -6 -8 -10t-18 -4q-13 0 -17 1.5t-4 4.5l4 21q2 7 5.5 24t5.5 31l41 223q3 17 3 28
q0 33 -20 33q-12 0 -31.5 -12t-40.5 -35q-1 -1 -3 -1q-3 0 -5.5 3.5t0.5 5.5q66 76 115 76q16 0 23 -9.5t7 -31.5q0 -21 -6 -57l-23 -133q36 110 86.5 172.5t105.5 62.5q33 0 48.5 -17.5t15.5 -54.5q0 -20 -7 -60l-33 -178q-3 -16 -3 -27q0 -34 21 -34q22 0 69 49q2 2 3 2z
M238.5 -106q14.5 -16 14.5 -45q0 -67 -75 -124l-2 -1q-4 0 -6 4.5t1 6.5q46 34 52 79q1 6 1 16q0 12 -3 21q-8 -11 -27 -11q-17 0 -26.5 9.5t-9.5 25.5q0 17 11.5 26t31.5 9q23 0 37.5 -16z" />
    <glyph glyph-name="Ncaron" unicode="&#x147;" horiz-adv-x="650" 
d="M315 768v1q0 2 3 4.5t4 1.5l82 -62l99 63h1q3 0 5.5 -3.5t-0.5 -4.5l-104 -93q-4 -4 -10 -4q-5 0 -9 4zM683 619q0 -6 -2 -6q-36 0 -55.5 -21t-27.5 -72l-94 -531q-1 -3 -5.5 -3.5t-6.5 3.5l-285 554l-11 20l-79 -459q-4 -23 -4 -42q0 -27 12 -38.5t39 -11.5q2 0 2 -6
t-2 -6q-20 0 -30 1l-44 1l-41 -1q-12 -1 -34 -1q-2 0 -2 6t2 6q36 0 55.5 21t27.5 71l84 478q-25 31 -58 31q-3 0 -3 6t3 6l32 -1q10 -1 28 -1q14 0 23.5 1t14.5 1q6 0 9 -4t7 -15q1 -3 4.5 -13t8.5 -20l251 -493l77 440q4 23 4 42q0 28 -12 39.5t-39 11.5q-2 0 -2 6t2 6
l30 -1q26 -2 44 -2q15 0 41 2l34 1q2 0 2 -6z" />
    <glyph glyph-name="ncaron" unicode="&#x148;" horiz-adv-x="463" 
d="M275 472q-3 0 -5.5 1.5t-2.5 3.5l-14 249q0 3 6 3.5t6 -2.5l26 -166l86 169q0 1 3 1t5.5 -1.5t1.5 -3.5l-101 -249q-2 -5 -11 -5zM443 79q3 0 5.5 -3.5t-0.5 -6.5q-35 -40 -61.5 -59t-50.5 -19q-17 0 -24 9.5t-7 32.5q0 20 6 56l29 159q7 31 7 57q0 60 -46 60
q-34 0 -70.5 -43t-69 -124.5t-52.5 -191.5q-1 -6 -8 -10t-18 -4q-13 0 -17 1.5t-4 4.5l4 21q2 7 5.5 24t5.5 31l41 223q3 17 3 28q0 33 -20 33q-12 0 -31.5 -12t-40.5 -35q-1 -1 -3 -1q-3 0 -5.5 3.5t0.5 5.5q66 76 115 76q16 0 23 -9.5t7 -31.5q0 -21 -6 -57l-23 -133
q36 110 86.5 172.5t105.5 62.5q33 0 48.5 -17.5t15.5 -54.5q0 -20 -7 -60l-33 -178q-3 -16 -3 -27q0 -34 21 -34q22 0 69 49q2 2 3 2z" />
    <glyph glyph-name="napostrophe" unicode="&#x149;" horiz-adv-x="463" 
d="M74 411q-3 0 -5 4t1 6q38 28 59 56t26 60q1 6 1 16q0 14 -3 21q-9 -11 -27 -11q-17 0 -26.5 9.5t-9.5 25.5q0 17 11.5 26.5t32.5 9.5q23 0 37 -16t14 -45q0 -46 -27.5 -83.5t-80.5 -77.5q-1 -1 -3 -1zM443 79q3 0 5.5 -3.5t-0.5 -6.5q-35 -40 -61.5 -59t-50.5 -19
q-17 0 -24 9.5t-7 32.5q0 20 6 56l29 159q7 31 7 57q0 60 -46 60q-34 0 -70.5 -43t-69 -124.5t-52.5 -191.5q-1 -6 -8 -10t-18 -4q-13 0 -17 1.5t-4 4.5l4 21q2 7 5.5 24t5.5 31l41 223q3 17 3 28q0 33 -20 33q-12 0 -31.5 -12t-40.5 -35q-1 -1 -3 -1q-3 0 -5.5 3.5t0.5 5.5
q66 76 115 76q16 0 23 -9.5t7 -31.5q0 -21 -6 -57l-23 -133q36 110 86.5 172.5t105.5 62.5q33 0 48.5 -17.5t15.5 -54.5q0 -20 -7 -60l-33 -178q-3 -16 -3 -27q0 -34 21 -34q22 0 69 49q2 2 3 2z" />
    <glyph glyph-name="Eng" unicode="&#x14a;" horiz-adv-x="650" 
d="M683 619q0 -6 -2 -6q-36 0 -55.5 -21t-27.5 -72l-94 -531q-16 -88 -52 -134t-88 -46q-32 0 -51 16t-19 37q0 5 1 8q2 13 10.5 19.5t20.5 6.5q15 0 20.5 -8.5t8.5 -25.5t8.5 -26t22.5 -9q34 0 60.5 43t41.5 126l-281 547l-11 20l-79 -459q-4 -23 -4 -42q0 -27 12 -38.5
t39 -11.5q2 0 2 -6t-2 -6q-20 0 -30 1l-44 1l-41 -1q-12 -1 -34 -1q-2 0 -2 6t2 6q36 0 55.5 21t27.5 71l84 478q-25 31 -58 31q-3 0 -3 6t3 6l32 -1q10 -1 28 -1q14 0 23.5 1t14.5 1q6 0 9 -4t7 -15q1 -3 4.5 -13t8.5 -20l251 -493l77 440q4 23 4 42q0 28 -12 39.5
t-39 11.5q-2 0 -2 6t2 6l30 -1q26 -2 44 -2q15 0 41 2l34 1q2 0 2 -6z" />
    <glyph glyph-name="eng" unicode="&#x14b;" horiz-adv-x="429" 
d="M377.5 381.5q15.5 -17.5 15.5 -54.5q0 -20 -7 -60l-60 -309q-18 -95 -35 -143.5t-40.5 -69t-63.5 -20.5q-29 0 -43 12t-12 28q3 14 11.5 21t19.5 7q10 0 14.5 -7t8.5 -20q4 -14 8.5 -20.5t13.5 -6.5q16 0 27 19.5t21 58.5t25 119l59 312q7 31 7 57q0 60 -46 60
q-34 0 -70.5 -43t-69 -124.5t-52.5 -191.5q-1 -6 -8 -10t-18 -4q-13 0 -17 1.5t-4 4.5l4 21q2 7 5.5 24t5.5 31l41 223q3 17 3 28q0 33 -20 33q-12 0 -31.5 -12t-40.5 -35q-1 -1 -3 -1q-3 0 -5.5 3.5t0.5 5.5q66 76 115 76q16 0 23 -9.5t7 -31.5q0 -21 -6 -57l-23 -133
q36 110 86.5 172.5t105.5 62.5q33 0 48.5 -17.5z" />
    <glyph glyph-name="Omacron" unicode="&#x14c;" horiz-adv-x="650" 
d="M299.5 723q-1.5 4 -1.5 9q0 13 5 13h240q5 0 5 -13t-5 -13h-240q-2 0 -3.5 4zM167 20.5q-50 32.5 -76 90t-26 129.5q0 36 6 73q16 93 66 166.5t121.5 115t150.5 41.5q71 0 121.5 -32.5t76.5 -89t26 -128.5q0 -29 -7 -73q-17 -93 -68 -167.5t-123 -116t-150 -41.5
q-68 0 -118 32.5zM481.5 77.5q64.5 63.5 89.5 182.5q11 53 11 99q0 74 -26 131.5t-74.5 89.5t-113.5 32q-93 0 -157 -66t-86 -180q-9 -48 -9 -92q0 -74 24.5 -133t72.5 -93t114 -34q90 0 154.5 63.5z" />
    <glyph glyph-name="omacron" unicode="&#x14d;" horiz-adv-x="396" 
d="M123.5 484q-1.5 4 -1.5 9q0 13 5 13h240q5 0 5 -13t-5 -13h-240q-2 0 -3.5 4zM62 28q-33 42 -33 111q0 30 5 54q11 57 41.5 104.5t74.5 74.5t92 27q61 0 94.5 -42.5t33.5 -108.5q0 -26 -6 -55q-12 -61 -45 -108t-77 -73t-89 -26q-58 0 -91 42zM269.5 48q36.5 37 48.5 101
q5 28 5 54q0 69 -28.5 120.5t-81.5 51.5q-46 0 -83 -38.5t-50 -100.5q-6 -27 -6 -56q0 -69 30.5 -119t83.5 -50q45 0 81.5 37z" />
    <glyph glyph-name="Obreve" unicode="&#x14e;" horiz-adv-x="650" 
d="M349.5 691.5q-21.5 25.5 -21.5 58.5q0 6 12 11t22 5q8 0 8 -3q2 -31 18.5 -49.5t45.5 -18.5q23 0 40 15t33 49q2 3 6 3t7.5 -2t2.5 -4q-21 -45 -46.5 -67.5t-62.5 -22.5q-43 0 -64.5 25.5zM167 20.5q-50 32.5 -76 90t-26 129.5q0 36 6 73q16 93 66 166.5t121.5 115
t150.5 41.5q71 0 121.5 -32.5t76.5 -89t26 -128.5q0 -29 -7 -73q-17 -93 -68 -167.5t-123 -116t-150 -41.5q-68 0 -118 32.5zM481.5 77.5q64.5 63.5 89.5 182.5q11 53 11 99q0 74 -26 131.5t-74.5 89.5t-113.5 32q-93 0 -157 -66t-86 -180q-9 -48 -9 -92q0 -74 24.5 -133
t72.5 -93t114 -34q90 0 154.5 63.5z" />
    <glyph glyph-name="obreve" unicode="&#x14f;" horiz-adv-x="396" 
d="M171.5 500.5q-21.5 25.5 -21.5 58.5q0 6 12 11t22 5q8 0 8 -3q2 -31 18.5 -49.5t45.5 -18.5q23 0 40 15t33 49q2 3 6 3t7.5 -2t2.5 -4q-21 -45 -46.5 -67.5t-62.5 -22.5q-43 0 -64.5 25.5zM62 28q-33 42 -33 111q0 30 5 54q11 57 41.5 104.5t74.5 74.5t92 27
q61 0 94.5 -42.5t33.5 -108.5q0 -26 -6 -55q-12 -61 -45 -108t-77 -73t-89 -26q-58 0 -91 42zM269.5 48q36.5 37 48.5 101q5 28 5 54q0 69 -28.5 120.5t-81.5 51.5q-46 0 -83 -38.5t-50 -100.5q-6 -27 -6 -56q0 -69 30.5 -119t83.5 -50q45 0 81.5 37z" />
    <glyph glyph-name="Ohungarumlaut" unicode="&#x150;" horiz-adv-x="650" 
d="M321 666q-4 0 -5 4.5t2 6.5l114 110q4 2 20.5 -2t29 -10t5.5 -8q-47 -20 -85 -44t-79 -56zM438 666q-4 0 -5 4.5t2 6.5l114 110q4 2 20.5 -2t29 -10t5.5 -8q-47 -20 -85 -44t-79 -56zM167 20.5q-50 32.5 -76 90t-26 129.5q0 36 6 73q16 93 66 166.5t121.5 115t150.5 41.5
q71 0 121.5 -32.5t76.5 -89t26 -128.5q0 -29 -7 -73q-17 -93 -68 -167.5t-123 -116t-150 -41.5q-68 0 -118 32.5zM481.5 77.5q64.5 63.5 89.5 182.5q11 53 11 99q0 74 -26 131.5t-74.5 89.5t-113.5 32q-93 0 -157 -66t-86 -180q-9 -48 -9 -92q0 -74 24.5 -133t72.5 -93
t114 -34q90 0 154.5 63.5z" />
    <glyph glyph-name="ohungarumlaut" unicode="&#x151;" horiz-adv-x="396" 
d="M155 466q-4 0 -4.5 4.5t2.5 6.5l37 36q49 49 76 74q4 2 20.5 -2t29 -10t5.5 -8q-47 -20 -85 -44t-79 -56zM272 466q-4 0 -5 4.5t2 6.5l114 110q4 2 20.5 -2t29 -10t5.5 -8q-47 -20 -85 -44t-79 -56zM62 28q-33 42 -33 111q0 30 5 54q11 57 41.5 104.5t74.5 74.5t92 27
q61 0 94.5 -42.5t33.5 -108.5q0 -26 -6 -55q-12 -61 -45 -108t-77 -73t-89 -26q-58 0 -91 42zM269.5 48q36.5 37 48.5 101q5 28 5 54q0 69 -28.5 120.5t-81.5 51.5q-46 0 -83 -38.5t-50 -100.5q-6 -27 -6 -56q0 -69 30.5 -119t83.5 -50q45 0 81.5 37z" />
    <glyph glyph-name="OE" unicode="&#x152;" horiz-adv-x="806" 
d="M814 616l-9 -59q-3 -15 -5 -31.5t-5 -31.5q-1 -4 -7 -3t-4 4q2 10 2 29q0 40 -18 63.5t-50 23.5h-63q-34 0 -50.5 -5t-24.5 -19t-14 -44l-37 -208h119q38 0 55 15t23 54q0 3 6 3q2 0 4.5 -1.5t1.5 -3.5q-5 -30 -8 -42l-6 -35l-6 -39l-8 -52q-1 -4 -7 -3.5t-5 4.5
q4 26 4 33q0 26 -14 37t-47 11h-115l-41 -231q-3 -18 -3 -30q0 -22 14.5 -29.5t54.5 -7.5h89q33 0 63 35.5t47 93.5q1 3 6.5 2t4.5 -4q-17 -54 -30 -130q-2 -8 -5.5 -11.5t-10.5 -3.5h-264q-22 0 -68 -2q-42 -2 -56 -2q-80 0 -139.5 32t-91.5 88.5t-32 128.5q0 24 5 56
q16 97 70 171t130 114.5t157 40.5q37 0 59 -1l71 -1h252q8 0 6 -9zM513 531q4 24 4 31q0 28 -18.5 40t-65.5 12q-73 0 -135 -34t-105 -99.5t-58 -157.5q-7 -38 -7 -78q0 -105 51 -170.5t141 -65.5q40 0 62.5 5.5t35 21t17.5 46.5z" />
    <glyph glyph-name="oe" unicode="&#x153;" horiz-adv-x="613" 
d="M517 264q-74 -35 -151 -48q-6 -31 -6 -61q0 -62 28 -98.5t79 -36.5q58 0 103 33h1q3 0 5.5 -3t0.5 -6q-73 -56 -143 -56q-51 0 -81.5 27.5t-40.5 73.5q-31 -48 -75.5 -75.5t-90.5 -27.5q-55 0 -86 42.5t-31 110.5q0 22 5 54q10 58 40.5 105t74 74t91.5 27t77.5 -31.5
t37.5 -85.5q33 52 81.5 84.5t101.5 32.5q31 0 47.5 -11.5t16.5 -31.5q0 -7 -1 -11q-10 -46 -84 -81zM260.5 48q35.5 37 47.5 101l1 6q0 6 2 16q1 9 1 29q0 71 -26.5 123t-78.5 52q-44 0 -80.5 -39.5t-46.5 -99.5q-5 -30 -5 -55q0 -70 28 -120t78 -50q44 0 79.5 37zM413 333
q-32 -39 -45 -102q74 10 118.5 29.5t55.5 63.5q2 10 2 14q0 34 -47 34q-52 0 -84 -39z" />
    <glyph glyph-name="Racute" unicode="&#x154;" horiz-adv-x="608" 
d="M214 678q-4 0 -5.5 4.5t1.5 6.5q40 18 114 60l58 32q4 2 20.5 -3.5t29 -13t5.5 -8.5q-118 -30 -222 -78h-1zM586 6q0 -6 -4 -6h-97q-24 0 -74 83.5t-116 230.5q-32 -8 -60 -8q-22 0 -38 3l-40 -228q-4 -19 -4 -34q0 -21 14 -28t55 -7q4 0 4 -6t-3 -6q-28 0 -43 1l-61 1
l-60 -1q-17 -1 -45 -1q-4 0 -4 6t4 6q35 0 53.5 5.5t27.5 19.5t15 44l82 463q4 26 4 31q0 23 -15 30.5t-56 7.5q-4 0 -4 6t4 6l43 -1q38 -2 60 -2q16 0 30.5 1t25.5 2q28 3 51 3q68 0 102.5 -26t34.5 -77q0 -10 -4 -34q-10 -53 -46 -96t-87 -67q57 -121 98 -188.5t76 -97.5
t73 -30q4 0 4 -6zM254 329q71 0 107 29.5t51 98.5q6 32 6 56q0 102 -107 102q-26 0 -38 -4t-20 -19t-14 -50l-37 -210q25 -3 52 -3z" />
    <glyph glyph-name="racute" unicode="&#x155;" horiz-adv-x="336" 
d="M310.5 724.5q14.5 4.5 27 6t10.5 -3.5l-142 -254q-1 -3 -6.5 -1t-3.5 4l98 240q2 4 16.5 8.5zM324 379q17 -16 13 -36q-6 -24 -29 -24q-11 0 -17 5t-12 15q-3 5 -7.5 9.5t-10.5 4.5q-23 0 -54.5 -59t-60 -142t-41.5 -146q-1 -6 -7.5 -10t-17.5 -4q-13 0 -16.5 1.5
t-3.5 4.5l5 23l10 53l31 175q7 35 7 60q0 49 -26 49q-23 0 -61 -36l-2 -1q-2 0 -4.5 3.5t-1.5 5.5q57 65 104 65q18 0 27.5 -13t9.5 -45q0 -34 -10 -88l-21 -114q35 107 78 183.5t81 76.5q20 0 37 -16z" />
    <glyph glyph-name="Rcommaaccent" unicode="&#x156;" horiz-adv-x="608" 
d="M586 6q0 -6 -4 -6h-97q-24 0 -74 83.5t-116 230.5q-32 -8 -60 -8q-22 0 -38 3l-40 -228q-4 -19 -4 -34q0 -21 14 -28t55 -7q4 0 4 -6t-3 -6q-28 0 -43 1l-61 1l-60 -1q-17 -1 -45 -1q-4 0 -4 6t4 6q35 0 53.5 5.5t27.5 19.5t15 44l82 463q4 26 4 31q0 23 -15 30.5
t-56 7.5q-4 0 -4 6t4 6l43 -1q38 -2 60 -2q16 0 30.5 1t25.5 2q28 3 51 3q68 0 102.5 -26t34.5 -77q0 -10 -4 -34q-10 -53 -46 -96t-87 -67q57 -121 98 -188.5t76 -97.5t73 -30q4 0 4 -6zM254 329q71 0 107 29.5t51 98.5q6 32 6 56q0 102 -107 102q-26 0 -38 -4t-20 -19
t-14 -50l-37 -210q25 -3 52 -3zM316.5 -106q14.5 -16 14.5 -45q0 -67 -75 -124l-2 -1q-4 0 -6 4.5t1 6.5q46 34 52 79q1 6 1 16q0 12 -3 21q-8 -11 -27 -11q-17 0 -26.5 9.5t-9.5 25.5q0 17 11.5 26t31.5 9q23 0 37.5 -16z" />
    <glyph glyph-name="rcommaaccent" unicode="&#x157;" horiz-adv-x="336" 
d="M324 379q17 -16 13 -36q-6 -24 -29 -24q-11 0 -17 5t-12 15q-3 5 -7.5 9.5t-10.5 4.5q-23 0 -54.5 -59t-60 -142t-41.5 -146q-1 -6 -7.5 -10t-17.5 -4q-13 0 -16.5 1.5t-3.5 4.5l5 23l10 53l31 175q7 35 7 60q0 49 -26 49q-23 0 -61 -36l-2 -1q-2 0 -4.5 3.5t-1.5 5.5
q57 65 104 65q18 0 27.5 -13t9.5 -45q0 -34 -10 -88l-21 -114q35 107 78 183.5t81 76.5q20 0 37 -16zM107.5 -106q14.5 -16 14.5 -45q0 -67 -75 -124l-2 -1q-4 0 -6 4.5t1 6.5q46 34 52 79q1 6 1 16q0 12 -3 21q-8 -11 -27 -11q-17 0 -26.5 9.5t-9.5 25.5q0 17 11.5 26
t31.5 9q23 0 37.5 -16z" />
    <glyph glyph-name="Rcaron" unicode="&#x158;" horiz-adv-x="608" 
d="M238 768v1q0 2 3 4.5t4 1.5l82 -62l99 63h1q3 0 5.5 -3.5t-0.5 -4.5l-104 -93q-4 -4 -10 -4q-5 0 -9 4zM586 6q0 -6 -4 -6h-97q-24 0 -74 83.5t-116 230.5q-32 -8 -60 -8q-22 0 -38 3l-40 -228q-4 -19 -4 -34q0 -21 14 -28t55 -7q4 0 4 -6t-3 -6q-28 0 -43 1l-61 1
l-60 -1q-17 -1 -45 -1q-4 0 -4 6t4 6q35 0 53.5 5.5t27.5 19.5t15 44l82 463q4 26 4 31q0 23 -15 30.5t-56 7.5q-4 0 -4 6t4 6l43 -1q38 -2 60 -2q16 0 30.5 1t25.5 2q28 3 51 3q68 0 102.5 -26t34.5 -77q0 -10 -4 -34q-10 -53 -46 -96t-87 -67q57 -121 98 -188.5t76 -97.5
t73 -30q4 0 4 -6zM254 329q71 0 107 29.5t51 98.5q6 32 6 56q0 102 -107 102q-26 0 -38 -4t-20 -19t-14 -50l-37 -210q25 -3 52 -3z" />
    </font>
</defs>
</svg>
